  0
SECTION
  2
HEADER
  9
$ACADVER
  1
AC1015
  9
$ACADMAINTVER
 70
    20
  9
$DWGCODEPAGE
  3
ANSI_932
  9
$INSBASE
 10
0.0
 20
0.0
 30
0.0
  9
$EXTMIN
 10
114.0
 20
4.0
 30
0.0
  9
$EXTMAX
 10
2784.0
 20
2024.0
 30
0.0
  9
$LIMMIN
 10
0.0
 20
0.0
  9
$LIMMAX
 10
29700.0
 20
21000.0
  9
$ORTHOMODE
 70
     1
  9
$REGENMODE
 70
     1
  9
$FILLMODE
 70
     1
  9
$QTEXTMODE
 70
     0
  9
$MIRRTEXT
 70
     1
  9
$LTSCALE
 40
4.0
  9
$ATTMODE
 70
     1
  9
$TEXTSIZE
 40
34.48685988790567
  9
$TRACEWID
 40
1.0
  9
$TEXTSTYLE
  7
Standard
  9
$CLAYER
  8
実形
  9
$CELTYPE
  6
ByLayer
  9
$CECOLOR
 62
   256
  9
$CELTSCALE
 40
1.0
  9
$DISPSILH
 70
     0
  9
$DIMSCALE
 40
1.0
  9
$DIMASZ
 40
35.0
  9
$DIMEXO
 40
65.0
  9
$DIMDLI
 40
3.75
  9
$DIMRND
 40
0.0
  9
$DIMDLE
 40
0.0
  9
$DIMEXE
 40
0.0
  9
$DIMTP
 40
0.0
  9
$DIMTM
 40
0.0
  9
$DIMTXT
 40
25.0
  9
$DIMCEN
 40
2.5
  9
$DIMTSZ
 40
0.0
  9
$DIMTOL
 70
     0
  9
$DIMLIM
 70
     0
  9
$DIMTIH
 70
     0
  9
$DIMTOH
 70
     0
  9
$DIMSE1
 70
     0
  9
$DIMSE2
 70
     0
  9
$DIMTAD
 70
     1
  9
$DIMZIN
 70
     8
  9
$DIMBLK
  1
DotSmall
  9
$DIMASO
 70
     1
  9
$DIMSHO
 70
     1
  9
$DIMPOST
  1

  9
$DIMAPOST
  1

  9
$DIMALT
 70
     0
  9
$DIMALTD
 70
     3
  9
$DIMALTF
 40
0.03937007874016
  9
$DIMLFAC
 40
1.0
  9
$DIMTOFL
 70
     1
  9
$DIMTVP
 40
0.0
  9
$DIMTIX
 70
     0
  9
$DIMSOXD
 70
     0
  9
$DIMSAH
 70
     0
  9
$DIMBLK1
  1

  9
$DIMBLK2
  1

  9
$DIMSTYLE
  2
ISO-25
  9
$DIMCLRD
 70
     0
  9
$DIMCLRE
 70
     0
  9
$DIMCLRT
 70
     0
  9
$DIMTFAC
 40
1.0
  9
$DIMGAP
 40
6.25
  9
$DIMJUST
 70
     0
  9
$DIMSD1
 70
     0
  9
$DIMSD2
 70
     0
  9
$DIMTOLJ
 70
     0
  9
$DIMTZIN
 70
     8
  9
$DIMALTZ
 70
     0
  9
$DIMALTTZ
 70
     0
  9
$DIMUPT
 70
     0
  9
$DIMDEC
 70
     2
  9
$DIMTDEC
 70
     2
  9
$DIMALTU
 70
     2
  9
$DIMALTTD
 70
     3
  9
$DIMTXSTY
  7
Standard
  9
$DIMAUNIT
 70
     0
  9
$DIMADEC
 70
     0
  9
$DIMALTRND
 40
0.0
  9
$DIMAZIN
 70
     0
  9
$DIMDSEP
 70
    46
  9
$DIMATFIT
 70
     3
  9
$DIMFRAC
 70
     0
  9
$DIMLDRBLK
  1
Open30
  9
$DIMLUNIT
 70
     2
  9
$DIMLWD
 70
    18
  9
$DIMLWE
 70
    18
  9
$DIMTMOVE
 70
     0
  9
$LUNITS
 70
     2
  9
$LUPREC
 70
     2
  9
$SKETCHINC
 40
1.0
  9
$FILLETRAD
 40
30.0
  9
$AUNITS
 70
     0
  9
$AUPREC
 70
     0
  9
$MENU
  1
.
  9
$ELEVATION
 40
0.0
  9
$PELEVATION
 40
0.0
  9
$THICKNESS
 40
0.0
  9
$LIMCHECK
 70
     1
  9
$CHAMFERA
 40
10.0
  9
$CHAMFERB
 40
10.0
  9
$CHAMFERC
 40
20.0
  9
$CHAMFERD
 40
0.0
  9
$SKPOLY
 70
     0
  9
$TDCREATE
 40
2451673.575802199
  9
$TDUCREATE
 40
2451673.200802199
  9
$TDUPDATE
 40
2458807.483728634
  9
$TDUUPDATE
 40
2458807.108728634
  9
$TDINDWG
 40
0.6488581134
  9
$TDUSRTIMER
 40
0.6488574190
  9
$USRTIMER
 70
     1
  9
$ANGBASE
 50
0.0
  9
$ANGDIR
 70
     0
  9
$PDMODE
 70
     3
  9
$PDSIZE
 40
0.0
  9
$PLINEWID
 40
0.0
  9
$SPLFRAME
 70
     0
  9
$SPLINETYPE
 70
     6
  9
$SPLINESEGS
 70
     8
  9
$HANDSEED
  5
F2C
  9
$SURFTAB1
 70
     6
  9
$SURFTAB2
 70
     6
  9
$SURFTYPE
 70
     6
  9
$SURFU
 70
     6
  9
$SURFV
 70
     6
  9
$UCSBASE
  2

  9
$UCSNAME
  2

  9
$UCSORG
 10
0.0
 20
0.0
 30
0.0
  9
$UCSXDIR
 10
1.0
 20
0.0
 30
0.0
  9
$UCSYDIR
 10
0.0
 20
1.0
 30
0.0
  9
$UCSORTHOREF
  2

  9
$UCSORTHOVIEW
 70
     0
  9
$UCSORGTOP
 10
0.0
 20
0.0
 30
0.0
  9
$UCSORGBOTTOM
 10
0.0
 20
0.0
 30
0.0
  9
$UCSORGLEFT
 10
0.0
 20
0.0
 30
0.0
  9
$UCSORGRIGHT
 10
0.0
 20
0.0
 30
0.0
  9
$UCSORGFRONT
 10
0.0
 20
0.0
 30
0.0
  9
$UCSORGBACK
 10
0.0
 20
0.0
 30
0.0
  9
$PUCSBASE
  2

  9
$PUCSNAME
  2

  9
$PUCSORG
 10
0.0
 20
0.0
 30
0.0
  9
$PUCSXDIR
 10
1.0
 20
0.0
 30
0.0
  9
$PUCSYDIR
 10
0.0
 20
1.0
 30
0.0
  9
$PUCSORTHOREF
  2

  9
$PUCSORTHOVIEW
 70
     0
  9
$PUCSORGTOP
 10
0.0
 20
0.0
 30
0.0
  9
$PUCSORGBOTTOM
 10
0.0
 20
0.0
 30
0.0
  9
$PUCSORGLEFT
 10
0.0
 20
0.0
 30
0.0
  9
$PUCSORGRIGHT
 10
0.0
 20
0.0
 30
0.0
  9
$PUCSORGFRONT
 10
0.0
 20
0.0
 30
0.0
  9
$PUCSORGBACK
 10
0.0
 20
0.0
 30
0.0
  9
$USERI1
 70
     0
  9
$USERI2
 70
     0
  9
$USERI3
 70
     0
  9
$USERI4
 70
     0
  9
$USERI5
 70
     0
  9
$USERR1
 40
0.0
  9
$USERR2
 40
0.0
  9
$USERR3
 40
0.0
  9
$USERR4
 40
0.0
  9
$USERR5
 40
0.0
  9
$WORLDVIEW
 70
     1
  9
$SHADEDGE
 70
     3
  9
$SHADEDIF
 70
    70
  9
$TILEMODE
 70
     1
  9
$MAXACTVP
 70
    64
  9
$PINSBASE
 10
0.0
 20
0.0
 30
0.0
  9
$PLIMCHECK
 70
     0
  9
$PEXTMIN
 10
27.8447512626648
 20
20.24591643810271
 30
0.0
  9
$PEXTMAX
 10
250.6027613639831
 20
182.2132479429245
 30
0.0
  9
$PLIMMIN
 10
-3.757080078125
 20
-3.757083177566528
  9
$PLIMMAX
 10
293.2112426757813
 20
206.2162444591522
  9
$UNITMODE
 70
     0
  9
$VISRETAIN
 70
     1
  9
$PLINEGEN
 70
     0
  9
$PSLTSCALE
 70
     1
  9
$TREEDEPTH
 70
  3020
  9
$CMLSTYLE
  2
Standard
  9
$CMLJUST
 70
     0
  9
$CMLSCALE
 40
20.0
  9
$PROXYGRAPHICS
 70
     1
  9
$MEASUREMENT
 70
     1
  9
$CELWEIGHT
370
    -1
  9
$ENDCAPS
280
     0
  9
$JOINSTYLE
280
     0
  9
$LWDISPLAY
290
     0
  9
$INSUNITS
 70
     4
  9
$HYPERLINKBASE
  1

  9
$STYLESHEET
  1

  9
$XEDIT
290
     1
  9
$CEPSNTYPE
380
     0
  9
$PSTYLEMODE
290
     1
  9
$FINGERPRINTGUID
  2
{C8EA1F16-24C9-11D4-9416-CE0A3B32152F}
  9
$VERSIONGUID
  2
{8BF3B6C0-DEDB-4108-B275-F8E1AEB33B41}
  9
$EXTNAMES
290
     1
  9
$PSVPSCALE
 40
0.0
  9
$OLESTARTUP
290
     0
  0
ENDSEC
  0
SECTION
  2
CLASSES
  0
CLASS
  1
ACDBDICTIONARYWDFLT
  2
AcDbDictionaryWithDefault
  3
ObjectDBX Classes
 90
        0
280
     0
281
     0
  0
CLASS
  1
ACDBPLACEHOLDER
  2
AcDbPlaceHolder
  3
ObjectDBX Classes
 90
        0
280
     0
281
     0
  0
CLASS
  1
LAYOUT
  2
AcDbLayout
  3
ObjectDBX Classes
 90
        0
280
     0
281
     0
  0
CLASS
  1
TABLESTYLE
  2
AcDbTableStyle
  3
ObjectDBX Classes
 90
     2047
280
     0
281
     0
  0
CLASS
  1
SORTENTSTABLE
  2
AcDbSortentsTable
  3
ObjectDBX Classes
 90
        0
280
     0
281
     0
  0
CLASS
  1
DICTIONARYVAR
  2
AcDbDictionaryVar
  3
ObjectDBX Classes
 90
        0
280
     0
281
     0
  0
ENDSEC
  0
SECTION
  2
TABLES
  0
TABLE
  2
VPORT
  5
8
330
0
100
AcDbSymbolTable
 70
     2
  0
VPORT
  5
F20
330
8
100
AcDbSymbolTableRecord
100
AcDbViewportTableRecord
  2
*Active
 70
     0
 10
0.0
 20
0.0
 11
1.0
 21
1.0
 12
1430.277555101487
 22
1033.921134150571
 13
0.0
 23
0.0
 14
10.0
 24
10.0
 15
10.0
 25
10.0
 16
0.0
 26
0.0
 36
1.0
 17
0.0
 27
0.0
 37
0.0
 40
2232.135355799953
 41
1.29038112522686
 42
50.0
 43
0.0
 44
0.0
 50
0.0
 51
0.0
 71
     0
 72
   100
 73
     1
 74
     3
 75
     0
 76
     0
 77
     0
 78
     0
281
     0
 65
     1
110
0.0
120
0.0
130
0.0
111
1.0
121
0.0
131
0.0
112
0.0
122
1.0
132
0.0
 79
     0
146
0.0
  0
ENDTAB
  0
TABLE
  2
LTYPE
  5
5
330
0
100
AcDbSymbolTable
 70
    46
  0
LTYPE
  5
14
330
5
100
AcDbSymbolTableRecord
100
AcDbLinetypeTableRecord
  2
ByBlock
 70
     0
  3

 72
    65
 73
     0
 40
0.0
  0
LTYPE
  5
15
330
5
100
AcDbSymbolTableRecord
100
AcDbLinetypeTableRecord
  2
ByLayer
 70
     0
  3

 72
    65
 73
     0
 40
0.0
  0
LTYPE
  5
16
330
5
100
AcDbSymbolTableRecord
100
AcDbLinetypeTableRecord
  2
Continuous
 70
     0
  3
Solid line
 72
    65
 73
     0
 40
0.0
  0
LTYPE
  5
34
330
5
100
AcDbSymbolTableRecord
100
AcDbLinetypeTableRecord
  2
ACAD_ISO02W100
 70
     0
  3
ISO dash __ __ __ __ __ __ __ __ __ __ __ __ __
 72
    65
 73
     2
 40
15.0
 49
12.0
 74
     0
 49
-3.0
 74
     0
  0
LTYPE
  5
35
330
5
100
AcDbSymbolTableRecord
100
AcDbLinetypeTableRecord
  2
ACAD_ISO03W100
 70
     0
  3
ISO dash space __    __    __    __    __    __
 72
    65
 73
     2
 40
30.0
 49
12.0
 74
     0
 49
-18.0
 74
     0
  0
LTYPE
  5
36
330
5
100
AcDbSymbolTableRecord
100
AcDbLinetypeTableRecord
  2
ACAD_ISO04W100
 70
     0
  3
ISO long-dash dot ____ . ____ . ____ . ____ . _
 72
    65
 73
     4
 40
30.0
 49
24.0
 74
     0
 49
-3.0
 74
     0
 49
0.0
 74
     0
 49
-3.0
 74
     0
  0
LTYPE
  5
37
330
5
100
AcDbSymbolTableRecord
100
AcDbLinetypeTableRecord
  2
ACAD_ISO05W100
 70
     0
  3
ISO long-dash double-dot ____ .. ____ .. ____ .
 72
    65
 73
     6
 40
34.0
 49
24.0
 74
     0
 49
-3.0
 74
     0
 49
0.5
 74
     0
 49
-3.0
 74
     0
 49
0.5
 74
     0
 49
-3.0
 74
     0
  0
LTYPE
  5
38
330
5
100
AcDbSymbolTableRecord
100
AcDbLinetypeTableRecord
  2
ACAD_ISO06W100
 70
     0
  3
ISO long-dash triple-dot ____ ... ____ ... ____
 72
    65
 73
     8
 40
37.5
 49
24.0
 74
     0
 49
-3.0
 74
     0
 49
0.5
 74
     0
 49
-3.0
 74
     0
 49
0.5
 74
     0
 49
-3.0
 74
     0
 49
0.5
 74
     0
 49
-3.0
 74
     0
  0
LTYPE
  5
39
330
5
100
AcDbSymbolTableRecord
100
AcDbLinetypeTableRecord
  2
ACAD_ISO07W100
 70
     0
  3
ISO dot . . . . . . . . . . . . . . . . . . . .
 72
    65
 73
     2
 40
3.0
 49
0.0
 74
     0
 49
-3.0
 74
     0
  0
LTYPE
  5
3A
330
5
100
AcDbSymbolTableRecord
100
AcDbLinetypeTableRecord
  2
ACAD_ISO08W100
 70
     0
  3
ISO long-dash short-dash ____ __ ____ __ ____ _
 72
    65
 73
     4
 40
36.0
 49
24.0
 74
     0
 49
-3.0
 74
     0
 49
6.0
 74
     0
 49
-3.0
 74
     0
  0
LTYPE
  5
3B
330
5
100
AcDbSymbolTableRecord
100
AcDbLinetypeTableRecord
  2
ACAD_ISO09W100
 70
     0
  3
ISO long-dash double-short-dash ____ __ __ ____
 72
    65
 73
     6
 40
45.0
 49
24.0
 74
     0
 49
-3.0
 74
     0
 49
6.0
 74
     0
 49
-3.0
 74
     0
 49
6.0
 74
     0
 49
-3.0
 74
     0
  0
LTYPE
  5
3C
330
5
100
AcDbSymbolTableRecord
100
AcDbLinetypeTableRecord
  2
ACAD_ISO10W100
 70
     0
  3
ISO dash dot __ . __ . __ . __ . __ . __ . __ .
 72
    65
 73
     4
 40
18.0
 49
12.0
 74
     0
 49
-3.0
 74
     0
 49
0.0
 74
     0
 49
-3.0
 74
     0
  0
LTYPE
  5
3D
330
5
100
AcDbSymbolTableRecord
100
AcDbLinetypeTableRecord
  2
ACAD_ISO11W100
 70
     0
  3
ISO double-dash dot __ __ . __ __ . __ __ . __ 
 72
    65
 73
     6
 40
33.0
 49
12.0
 74
     0
 49
-3.0
 74
     0
 49
12.0
 74
     0
 49
-3.0
 74
     0
 49
0.0
 74
     0
 49
-3.0
 74
     0
  0
LTYPE
  5
3E
330
5
100
AcDbSymbolTableRecord
100
AcDbLinetypeTableRecord
  2
ACAD_ISO12W100
 70
     0
  3
ISO dash double-dot __ . . __ . . __ . . __ . .
 72
    65
 73
     6
 40
21.0
 49
12.0
 74
     0
 49
-3.0
 74
     0
 49
0.0
 74
     0
 49
-3.0
 74
     0
 49
0.0
 74
     0
 49
-3.0
 74
     0
  0
LTYPE
  5
3F
330
5
100
AcDbSymbolTableRecord
100
AcDbLinetypeTableRecord
  2
ACAD_ISO13W100
 70
     0
  3
ISO double-dash double-dot __ __ . . __ __ . . 
 72
    65
 73
     8
 40
36.0
 49
12.0
 74
     0
 49
-3.0
 74
     0
 49
12.0
 74
     0
 49
-3.0
 74
     0
 49
0.0
 74
     0
 49
-3.0
 74
     0
 49
0.0
 74
     0
 49
-3.0
 74
     0
  0
LTYPE
  5
40
330
5
100
AcDbSymbolTableRecord
100
AcDbLinetypeTableRecord
  2
ACAD_ISO14W100
 70
     0
  3
ISO dash triple-dot __ . . . __ . . . __ . . . 
 72
    65
 73
     8
 40
24.0
 49
12.0
 74
     0
 49
-3.0
 74
     0
 49
0.0
 74
     0
 49
-3.0
 74
     0
 49
0.0
 74
     0
 49
-3.0
 74
     0
 49
0.0
 74
     0
 49
-3.0
 74
     0
  0
LTYPE
  5
41
330
5
100
AcDbSymbolTableRecord
100
AcDbLinetypeTableRecord
  2
ACAD_ISO15W100
 70
     0
  3
ISO double-dash triple-dot __ __ . . . __ __ . 
 72
    65
 73
    10
 40
39.0
 49
12.0
 74
     0
 49
-3.0
 74
     0
 49
12.0
 74
     0
 49
-3.0
 74
     0
 49
0.0
 74
     0
 49
-3.0
 74
     0
 49
0.0
 74
     0
 49
-3.0
 74
     0
 49
0.0
 74
     0
 49
-3.0
 74
     0
  0
LTYPE
  5
42
330
5
100
AcDbSymbolTableRecord
100
AcDbLinetypeTableRecord
  2
BATTING
 70
     0
  3
Batting SSSSSSSSSSSSSSSSSSSSSSSSSSSSSSSSSSSSSSS
 72
    65
 73
     4
 40
10.16254
 49
0.00254
 74
     0
 49
-2.54
 74
     4
 75
   134
340
33
 46
2.54
 50
0.0
 44
-2.54
 45
0.0
 49
-5.08
 74
     4
 75
   134
340
33
 46
2.54
 50
180.0
 44
2.54
 45
0.0
 49
-2.54
 74
     0
  0
LTYPE
  5
43
330
5
100
AcDbSymbolTableRecord
100
AcDbLinetypeTableRecord
  2
BORDER
 70
     0
  3
Border __ __ . __ __ . __ __ . __ __ . __ __ .
 72
    65
 73
     6
 40
44.45
 49
12.7
 74
     0
 49
-6.349999999999999
 74
     0
 49
12.7
 74
     0
 49
-6.349999999999999
 74
     0
 49
0.0
 74
     0
 49
-6.349999999999999
 74
     0
  0
LTYPE
  5
44
330
5
100
AcDbSymbolTableRecord
100
AcDbLinetypeTableRecord
  2
BORDER2
 70
     0
  3
Border (.5x) __.__.__.__.__.__.__.__.__.__.__.
 72
    65
 73
     6
 40
22.225
 49
6.349999999999999
 74
     0
 49
-3.174999999999999
 74
     0
 49
6.349999999999999
 74
     0
 49
-3.174999999999999
 74
     0
 49
0.0
 74
     0
 49
-3.174999999999999
 74
     0
  0
LTYPE
  5
45
330
5
100
AcDbSymbolTableRecord
100
AcDbLinetypeTableRecord
  2
BORDERX2
 70
     0
  3
Border (2x) ____  ____  .  ____  ____  .  ___
 72
    65
 73
     6
 40
88.9
 49
25.4
 74
     0
 49
-12.7
 74
     0
 49
25.4
 74
     0
 49
-12.7
 74
     0
 49
0.0
 74
     0
 49
-12.7
 74
     0
  0
LTYPE
  5
46
330
5
100
AcDbSymbolTableRecord
100
AcDbLinetypeTableRecord
  2
CENTER
 70
     0
  3
Center ____ _ ____ _ ____ _ ____ _ ____ _ ____
 72
    65
 73
     4
 40
50.8
 49
31.75
 74
     0
 49
-6.349999999999999
 74
     0
 49
6.349999999999999
 74
     0
 49
-6.349999999999999
 74
     0
  0
LTYPE
  5
47
330
5
100
AcDbSymbolTableRecord
100
AcDbLinetypeTableRecord
  2
CENTER2
 70
     0
  3
Center (.5x) ___ _ ___ _ ___ _ ___ _ ___ _ ___
 72
    65
 73
     4
 40
28.575
 49
19.05
 74
     0
 49
-3.174999999999999
 74
     0
 49
3.174999999999999
 74
     0
 49
-3.174999999999999
 74
     0
  0
LTYPE
  5
48
330
5
100
AcDbSymbolTableRecord
100
AcDbLinetypeTableRecord
  2
CENTERX2
 70
     0
  3
Center (2x) ________  __  ________  __  _____
 72
    65
 73
     4
 40
101.6
 49
63.5
 74
     0
 49
-12.7
 74
     0
 49
12.7
 74
     0
 49
-12.7
 74
     0
  0
LTYPE
  5
49
330
5
100
AcDbSymbolTableRecord
100
AcDbLinetypeTableRecord
  2
DASHDOT
 70
     0
  3
Dash dot __ . __ . __ . __ . __ . __ . __ . __
 72
    65
 73
     4
 40
25.4
 49
12.7
 74
     0
 49
-6.349999999999999
 74
     0
 49
0.0
 74
     0
 49
-6.349999999999999
 74
     0
  0
LTYPE
  5
4A
330
5
100
AcDbSymbolTableRecord
100
AcDbLinetypeTableRecord
  2
DASHDOT2
 70
     0
  3
Dash dot (.5x) _._._._._._._._._._._._._._._.
 72
    65
 73
     4
 40
12.7
 49
6.349999999999999
 74
     0
 49
-3.174999999999999
 74
     0
 49
0.0
 74
     0
 49
-3.174999999999999
 74
     0
  0
LTYPE
  5
4B
330
5
100
AcDbSymbolTableRecord
100
AcDbLinetypeTableRecord
  2
DASHDOTX2
 70
     0
  3
Dash dot (2x) ____  .  ____  .  ____  .  ___
 72
    65
 73
     4
 40
50.8
 49
25.4
 74
     0
 49
-12.7
 74
     0
 49
0.0
 74
     0
 49
-12.7
 74
     0
  0
LTYPE
  5
4C
330
5
100
AcDbSymbolTableRecord
100
AcDbLinetypeTableRecord
  2
DASHED
 70
     0
  3
Dashed __ __ __ __ __ __ __ __ __ __ __ __ __ _
 72
    65
 73
     2
 40
19.05
 49
12.7
 74
     0
 49
-6.349999999999999
 74
     0
  0
LTYPE
  5
4D
330
5
100
AcDbSymbolTableRecord
100
AcDbLinetypeTableRecord
  2
DASHED2
 70
     0
  3
Dashed (.5x) _ _ _ _ _ _ _ _ _ _ _ _ _ _ _ _ _
 72
    65
 73
     2
 40
9.524999999999998
 49
6.349999999999999
 74
     0
 49
-3.174999999999999
 74
     0
  0
LTYPE
  5
4E
330
5
100
AcDbSymbolTableRecord
100
AcDbLinetypeTableRecord
  2
DASHEDX2
 70
     0
  3
Dashed (2x) ____  ____  ____  ____  ____  ___
 72
    65
 73
     2
 40
38.1
 49
25.4
 74
     0
 49
-12.7
 74
     0
  0
LTYPE
  5
4F
330
5
100
AcDbSymbolTableRecord
100
AcDbLinetypeTableRecord
  2
DIVIDE
 70
     0
  3
Divide ____ . . ____ . . ____ . . ____ . . ____
 72
    65
 73
     6
 40
31.75
 49
12.7
 74
     0
 49
-6.349999999999999
 74
     0
 49
0.0
 74
     0
 49
-6.349999999999999
 74
     0
 49
0.0
 74
     0
 49
-6.349999999999999
 74
     0
  0
LTYPE
  5
50
330
5
100
AcDbSymbolTableRecord
100
AcDbLinetypeTableRecord
  2
DIVIDE2
 70
     0
  3
Divide (.5x) __..__..__..__..__..__..__..__.._
 72
    65
 73
     6
 40
15.875
 49
6.349999999999999
 74
     0
 49
-3.174999999999999
 74
     0
 49
0.0
 74
     0
 49
-3.174999999999999
 74
     0
 49
0.0
 74
     0
 49
-3.174999999999999
 74
     0
  0
LTYPE
  5
51
330
5
100
AcDbSymbolTableRecord
100
AcDbLinetypeTableRecord
  2
DIVIDEX2
 70
     0
  3
Divide (2x) ________  .  .  ________  .  .  _
 72
    65
 73
     6
 40
63.49999999999999
 49
25.4
 74
     0
 49
-12.7
 74
     0
 49
0.0
 74
     0
 49
-12.7
 74
     0
 49
0.0
 74
     0
 49
-12.7
 74
     0
  0
LTYPE
  5
52
330
5
100
AcDbSymbolTableRecord
100
AcDbLinetypeTableRecord
  2
DOT
 70
     0
  3
Dot . . . . . . . . . . . . . . . . . . . . . .
 72
    65
 73
     2
 40
6.349999999999999
 49
0.0
 74
     0
 49
-6.349999999999999
 74
     0
  0
LTYPE
  5
53
330
5
100
AcDbSymbolTableRecord
100
AcDbLinetypeTableRecord
  2
DOT2
 70
     0
  3
Dot (.5x) .....................................
 72
    65
 73
     2
 40
3.174999999999999
 49
0.0
 74
     0
 49
-3.174999999999999
 74
     0
  0
LTYPE
  5
54
330
5
100
AcDbSymbolTableRecord
100
AcDbLinetypeTableRecord
  2
DOTX2
 70
     0
  3
Dot (2x) .  .  .  .  .  .  .  .  .  .  .  .  . 
 72
    65
 73
     2
 40
12.7
 49
0.0
 74
     0
 49
-12.7
 74
     0
  0
LTYPE
  5
55
330
5
100
AcDbSymbolTableRecord
100
AcDbLinetypeTableRecord
  2
FENCELINE1
 70
     0
  3
Fenceline circle ----0-----0----0-----0----0---
 72
    65
 73
     4
 40
36.83
 49
6.349999999999999
 74
     0
 49
-2.54
 74
     4
 75
   133
340
33
 46
2.54
 50
0.0
 44
-2.54
 45
0.0
 49
-2.54
 74
     0
 49
25.4
 74
     0
  0
LTYPE
  5
56
330
5
100
AcDbSymbolTableRecord
100
AcDbLinetypeTableRecord
  2
FENCELINE2
 70
     0
  3
Fenceline square ----[]-----[]----[]-----[]----
 72
    65
 73
     4
 40
36.83
 49
6.349999999999999
 74
     0
 49
-2.54
 74
     4
 75
   132
340
33
 46
2.54
 50
0.0
 44
-2.54
 45
0.0
 49
-2.54
 74
     0
 49
25.4
 74
     0
  0
LTYPE
  5
57
330
5
100
AcDbSymbolTableRecord
100
AcDbLinetypeTableRecord
  2
GAS_LINE
 70
     0
  3
Gas line ----GAS----GAS----GAS----GAS----GAS---
 72
    65
 73
     3
 40
24.13
 49
12.7
 74
     0
 49
-5.08
 74
     2
 75
     0
340
11
 46
2.54
 50
0.0
 44
-2.54
 45
-1.27
  9
GAS
 49
-6.349999999999999
 74
     0
  0
LTYPE
  5
58
330
5
100
AcDbSymbolTableRecord
100
AcDbLinetypeTableRecord
  2
HIDDEN
 70
     0
  3
Hidden __ __ __ __ __ __ __ __ __ __ __ __ __ _
 72
    65
 73
     2
 40
9.524999999999998
 49
6.349999999999999
 74
     0
 49
-3.174999999999999
 74
     0
  0
LTYPE
  5
59
330
5
100
AcDbSymbolTableRecord
100
AcDbLinetypeTableRecord
  2
HIDDEN2
 70
     0
  3
Hidden (.5x) _ _ _ _ _ _ _ _ _ _ _ _ _ _ _ _ _
 72
    65
 73
     2
 40
4.762499999999999
 49
3.174999999999999
 74
     0
 49
-1.587499999999999
 74
     0
  0
LTYPE
  5
5A
330
5
100
AcDbSymbolTableRecord
100
AcDbLinetypeTableRecord
  2
HIDDENX2
 70
     0
  3
Hidden (2x) ____ ____ ____ ____ ____ ____ ____
 72
    65
 73
     2
 40
19.05
 49
12.7
 74
     0
 49
-6.349999999999999
 74
     0
  0
LTYPE
  5
5B
330
5
100
AcDbSymbolTableRecord
100
AcDbLinetypeTableRecord
  2
HOT_WATER_SUPPLY
 70
     0
  3
Hot water supply ---- HW ---- HW ---- HW ----
 72
    65
 73
     3
 40
22.86
 49
12.7
 74
     0
 49
-5.08
 74
     2
 75
     0
340
11
 46
2.54
 50
0.0
 44
-2.54
 45
-1.27
  9
HW
 49
-5.08
 74
     0
  0
LTYPE
  5
5C
330
5
100
AcDbSymbolTableRecord
100
AcDbLinetypeTableRecord
  2
PHANTOM
 70
     0
  3
Phantom ______  __  __  ______  __  __  ______
 72
    65
 73
     6
 40
63.5
 49
31.75
 74
     0
 49
-6.349999999999999
 74
     0
 49
6.349999999999999
 74
     0
 49
-6.349999999999999
 74
     0
 49
6.349999999999999
 74
     0
 49
-6.349999999999999
 74
     0
  0
LTYPE
  5
5D
330
5
100
AcDbSymbolTableRecord
100
AcDbLinetypeTableRecord
  2
PHANTOM2
 70
     0
  3
Phantom (.5x) ___ _ _ ___ _ _ ___ _ _ ___ _ _
 72
    65
 73
     6
 40
31.75
 49
15.875
 74
     0
 49
-3.174999999999999
 74
     0
 49
3.174999999999999
 74
     0
 49
-3.174999999999999
 74
     0
 49
3.174999999999999
 74
     0
 49
-3.174999999999999
 74
     0
  0
LTYPE
  5
5E
330
5
100
AcDbSymbolTableRecord
100
AcDbLinetypeTableRecord
  2
PHANTOMX2
 70
     0
  3
Phantom (2x) ____________    ____    ____   _
 72
    65
 73
     6
 40
127.0
 49
63.5
 74
     0
 49
-12.7
 74
     0
 49
12.7
 74
     0
 49
-12.7
 74
     0
 49
12.7
 74
     0
 49
-12.7
 74
     0
  0
LTYPE
  5
5F
330
5
100
AcDbSymbolTableRecord
100
AcDbLinetypeTableRecord
  2
TRACKS
 70
     0
  3
Tracks -|-|-|-|-|-|-|-|-|-|-|-|-|-|-|-|-|-|-|-|
 72
    65
 73
     2
 40
7.62
 49
3.81
 74
     4
 75
   130
340
33
 46
6.349999999999999
 50
0.0
 44
0.0
 45
0.0
 49
3.81
 74
     0
  0
LTYPE
  5
60
330
5
100
AcDbSymbolTableRecord
100
AcDbLinetypeTableRecord
  2
ZIGZAG
 70
     0
  3
Zig zag /\/\/\/\/\/\/\/\/\/\/\/\/\/\/\/\/\/\/\/
 72
    65
 73
     4
 40
20.32254
 49
0.00254
 74
     0
 49
-5.08
 74
     4
 75
   131
340
33
 46
5.08
 50
0.0
 44
-5.08
 45
0.0
 49
-10.16
 74
     4
 75
   131
340
33
 46
5.08
 50
180.0
 44
5.08
 45
0.0
 49
-5.08
 74
     0
  0
ENDTAB
  0
TABLE
  2
LAYER
  5
2
102
{ACAD_XDICTIONARY
360
EA5
102
}
330
0
100
AcDbSymbolTable
 70
     9
  0
LAYER
  5
10
330
2
100
AcDbSymbolTableRecord
100
AcDbLayerTableRecord
  2
0
 70
     0
 62
     7
  6
Continuous
370
    -3
390
F
  0
LAYER
  5
C3
330
2
100
AcDbSymbolTableRecord
100
AcDbLayerTableRecord
  2
Defpoints
 70
     0
 62
     7
  6
Continuous
290
     0
370
    -3
390
F
  0
LAYER
  5
256
330
2
100
AcDbSymbolTableRecord
100
AcDbLayerTableRecord
  2
センター
 70
     0
 62
     7
  6
CENTER2
370
    18
390
F
  0
LAYER
  5
268
330
2
100
AcDbSymbolTableRecord
100
AcDbLayerTableRecord
  2
実形
 70
     0
 62
     7
  6
Continuous
370
    -3
390
F
  0
LAYER
  5
269
330
2
100
AcDbSymbolTableRecord
100
AcDbLayerTableRecord
  2
補助
 70
     0
 62
     7
  6
Continuous
370
    -3
390
F
  0
LAYER
  5
26A
330
2
100
AcDbSymbolTableRecord
100
AcDbLayerTableRecord
  2
寸法
 70
     0
 62
     7
  6
Continuous
370
    18
390
F
  0
LAYER
  5
26B
330
2
100
AcDbSymbolTableRecord
100
AcDbLayerTableRecord
  2
ハッチング
 70
     0
 62
     7
  6
Continuous
370
    18
390
F
  0
LAYER
  5
26D
330
2
100
AcDbSymbolTableRecord
100
AcDbLayerTableRecord
  2
文字
 70
     0
 62
     7
  6
Continuous
370
    -3
390
F
  0
LAYER
  5
B26
330
2
100
AcDbSymbolTableRecord
100
AcDbLayerTableRecord
  2
Cen
 70
     0
 62
     7
  6
CENTER2
370
    15
390
F
  0
ENDTAB
  0
TABLE
  2
STYLE
  5
3
330
0
100
AcDbSymbolTable
 70
     3
  0
STYLE
  5
11
330
3
100
AcDbSymbolTableRecord
100
AcDbTextStyleTableRecord
  2
Standard
 70
     0
 40
0.0
 41
1.0
 50
0.0
 71
     0
 42
34.48685988790567
  3
txt.shx
  4
bigfont.shx
  0
STYLE
  5
33
330
3
100
AcDbSymbolTableRecord
100
AcDbTextStyleTableRecord
  2

 70
     1
 40
0.0
 41
1.0
 50
0.0
 71
     0
 42
2.5
  3
ltypeshp.shx
  4

  0
STYLE
  5
ECE
330
3
100
AcDbSymbolTableRecord
100
AcDbTextStyleTableRecord
  2
明朝
 70
     0
 40
0.0
 41
1.0
 50
0.0
 71
     0
 42
25.0
  3
MS Mincho.ttf
  4

1001
ACAD
1000
MS Mincho
1071
    32785
  0
ENDTAB
  0
TABLE
  2
VIEW
  5
6
330
0
100
AcDbSymbolTable
 70
     0
  0
ENDTAB
  0
TABLE
  2
UCS
  5
7
330
0
100
AcDbSymbolTable
 70
     0
  0
ENDTAB
  0
TABLE
  2
APPID
  5
9
330
0
100
AcDbSymbolTable
 70
     1
  0
APPID
  5
12
330
9
100
AcDbSymbolTableRecord
100
AcDbRegAppTableRecord
  2
ACAD
 70
     0
  0
ENDTAB
  0
TABLE
  2
DIMSTYLE
  5
A
330
0
100
AcDbSymbolTable
 70
     1
100
AcDbDimStyleTable
 71
     1
340
27
  0
DIMSTYLE
105
27
102
{ACAD_REACTORS
330
368
330
44B
330
458
330
4A3
330
532
330
548
330
569
330
57F
330
35B
330
3CE
330
43D
330
3E9
330
3DC
330
3F6
330
4F8
330
505
330
CA9
330
CAA
102
}
330
A
100
AcDbSymbolTableRecord
100
AcDbDimStyleTableRecord
  2
ISO-25
 70
     0
 41
35.0
 42
65.0
 43
3.75
 44
0.0
 73
     0
 74
     0
 77
     1
 78
     8
140
25.0
141
2.5
143
0.03937007874016
147
6.25
171
     3
172
     1
271
     2
272
     2
274
     3
283
     0
284
     8
340
11
341
DA
342
D0
371
    15
372
    15
  0
ENDTAB
  0
TABLE
  2
BLOCK_RECORD
  5
1
330
0
100
AcDbSymbolTable
 70
    22
  0
BLOCK_RECORD
  5
1F
102
{ACAD_XDICTIONARY
360
CE0
102
}
330
1
100
AcDbSymbolTableRecord
100
AcDbBlockTableRecord
  2
*Model_Space
340
22
  0
BLOCK_RECORD
  5
1B
330
1
100
AcDbSymbolTableRecord
100
AcDbBlockTableRecord
  2
*Paper_Space
340
1E
  0
BLOCK_RECORD
  5
23
330
1
100
AcDbSymbolTableRecord
100
AcDbBlockTableRecord
  2
*Paper_Space0
340
26
  0
BLOCK_RECORD
  5
D0
330
1
100
AcDbSymbolTableRecord
100
AcDbBlockTableRecord
  2
_DotSmall
340
0
102
{BLKREFS
331
BE1
331
BE2
331
C1F
331
C20
331
C3A
331
C3B
331
C43
331
C44
331
C5F
331
C60
331
C68
331
C69
331
C70
331
C71
331
C79
331
C7A
331
C81
331
C82
331
DF1
331
DF2
331
DFA
331
DFB
331
E02
331
E03
331
E0B
331
E0C
331
E3F
331
E40
331
E48
331
E49
331
E70
331
E71
331
E79
331
E7A
331
F04
331
F05
102
}
  0
BLOCK_RECORD
  5
D4
330
1
100
AcDbSymbolTableRecord
100
AcDbBlockTableRecord
  2
_Origin2
340
0
  0
BLOCK_RECORD
  5
DA
330
1
100
AcDbSymbolTableRecord
100
AcDbBlockTableRecord
  2
_Open30
340
0
  0
BLOCK_RECORD
  5
35C
330
1
100
AcDbSymbolTableRecord
100
AcDbBlockTableRecord
  2
*D4
340
0
  0
BLOCK_RECORD
  5
369
330
1
100
AcDbSymbolTableRecord
100
AcDbBlockTableRecord
  2
*D5
340
0
  0
BLOCK_RECORD
  5
3CF
330
1
100
AcDbSymbolTableRecord
100
AcDbBlockTableRecord
  2
*D6
340
0
  0
BLOCK_RECORD
  5
3DD
330
1
100
AcDbSymbolTableRecord
100
AcDbBlockTableRecord
  2
*D7
340
0
  0
BLOCK_RECORD
  5
3EA
330
1
100
AcDbSymbolTableRecord
100
AcDbBlockTableRecord
  2
*D8
340
0
  0
BLOCK_RECORD
  5
3F7
330
1
100
AcDbSymbolTableRecord
100
AcDbBlockTableRecord
  2
*D9
340
0
  0
BLOCK_RECORD
  5
43E
330
1
100
AcDbSymbolTableRecord
100
AcDbBlockTableRecord
  2
*D10
340
0
  0
BLOCK_RECORD
  5
44C
330
1
100
AcDbSymbolTableRecord
100
AcDbBlockTableRecord
  2
*D11
340
0
  0
BLOCK_RECORD
  5
459
330
1
100
AcDbSymbolTableRecord
100
AcDbBlockTableRecord
  2
*D12
340
0
  0
BLOCK_RECORD
  5
4A4
330
1
100
AcDbSymbolTableRecord
100
AcDbBlockTableRecord
  2
*D13
340
0
  0
BLOCK_RECORD
  5
4F9
330
1
100
AcDbSymbolTableRecord
100
AcDbBlockTableRecord
  2
*D14
340
0
  0
BLOCK_RECORD
  5
506
330
1
100
AcDbSymbolTableRecord
100
AcDbBlockTableRecord
  2
*D15
340
0
  0
BLOCK_RECORD
  5
533
330
1
100
AcDbSymbolTableRecord
100
AcDbBlockTableRecord
  2
*D16
340
0
  0
BLOCK_RECORD
  5
549
330
1
100
AcDbSymbolTableRecord
100
AcDbBlockTableRecord
  2
*D17
340
0
  0
BLOCK_RECORD
  5
56A
330
1
100
AcDbSymbolTableRecord
100
AcDbBlockTableRecord
  2
*D18
340
0
  0
BLOCK_RECORD
  5
580
330
1
100
AcDbSymbolTableRecord
100
AcDbBlockTableRecord
  2
*D19
340
0
  0
BLOCK_RECORD
  5
CAC
330
1
100
AcDbSymbolTableRecord
100
AcDbBlockTableRecord
  2
*D20
340
0
  0
BLOCK_RECORD
  5
CB7
330
1
100
AcDbSymbolTableRecord
100
AcDbBlockTableRecord
  2
*D21
340
0
  0
ENDTAB
  0
ENDSEC
  0
SECTION
  2
BLOCKS
  0
BLOCK
  5
20
330
1F
100
AcDbEntity
  8
0
100
AcDbBlockBegin
  2
*Model_Space
 70
     0
 10
0.0
 20
0.0
 30
0.0
  3
*Model_Space
  1

  0
ENDBLK
  5
21
330
1F
100
AcDbEntity
  8
0
100
AcDbBlockEnd
  0
BLOCK
  5
1C
330
1B
100
AcDbEntity
 67
     1
  8
0
100
AcDbBlockBegin
  2
*Paper_Space
 70
     0
 10
0.0
 20
0.0
 30
0.0
  3
*Paper_Space
  1

  0
ENDBLK
  5
1D
330
1B
100
AcDbEntity
 67
     1
  8
0
100
AcDbBlockEnd
  0
BLOCK
  5
24
330
23
100
AcDbEntity
  8
0
100
AcDbBlockBegin
  2
*Paper_Space0
 70
     0
 10
0.0
 20
0.0
 30
0.0
  3
*Paper_Space0
  1

  0
ENDBLK
  5
25
330
23
100
AcDbEntity
  8
0
100
AcDbBlockEnd
  0
BLOCK
  5
D2
330
D0
100
AcDbEntity
  8
0
100
AcDbBlockBegin
  2
_DotSmall
 70
     0
 10
0.0
 20
0.0
 30
0.0
  3
_DotSmall
  1

  0
LWPOLYLINE
  5
D1
330
D0
100
AcDbEntity
  8
0
 62
     0
100
AcDbPolyline
 90
        2
 70
     1
 43
0.5
 10
-0.0625
 20
0.0
 42
1.0
 10
0.0625
 20
0.0
 42
1.0
  0
ENDBLK
  5
D3
330
D0
100
AcDbEntity
  8
0
100
AcDbBlockEnd
  0
BLOCK
  5
D8
330
D4
100
AcDbEntity
  8
0
100
AcDbBlockBegin
  2
_Origin2
 70
     0
 10
0.0
 20
0.0
 30
0.0
  3
_Origin2
  1

  0
CIRCLE
  5
D5
330
D4
100
AcDbEntity
  8
0
 62
     0
370
    -2
100
AcDbCircle
 10
0.0
 20
0.0
 30
0.0
 40
0.5
  0
CIRCLE
  5
D6
330
D4
100
AcDbEntity
  8
0
 62
     0
370
    -2
100
AcDbCircle
 10
0.0
 20
0.0
 30
0.0
 40
0.25
  0
LINE
  5
D7
330
D4
100
AcDbEntity
  8
0
 62
     0
370
    -2
100
AcDbLine
 10
-0.5
 20
0.0
 30
0.0
 11
-1.0
 21
0.0
 31
0.0
  0
ENDBLK
  5
D9
330
D4
100
AcDbEntity
  8
0
100
AcDbBlockEnd
  0
BLOCK
  5
DE
330
DA
100
AcDbEntity
  8
0
100
AcDbBlockBegin
  2
_Open30
 70
     0
 10
0.0
 20
0.0
 30
0.0
  3
_Open30
  1

  0
LINE
  5
DB
330
DA
100
AcDbEntity
  8
0
 62
     0
370
    -2
100
AcDbLine
 10
-1.0
 20
0.26794919
 30
0.0
 11
0.0
 21
0.0
 31
0.0
  0
LINE
  5
DC
330
DA
100
AcDbEntity
  8
0
 62
     0
370
    -2
100
AcDbLine
 10
0.0
 20
0.0
 30
0.0
 11
-1.0
 21
-0.26794919
 31
0.0
  0
LINE
  5
DD
330
DA
100
AcDbEntity
  8
0
 62
     0
370
    -2
100
AcDbLine
 10
0.0
 20
0.0
 30
0.0
 11
-1.0
 21
0.0
 31
0.0
  0
ENDBLK
  5
DF
330
DA
100
AcDbEntity
  8
0
100
AcDbBlockEnd
  0
BLOCK
  5
366
330
35C
100
AcDbEntity
  8
0
100
AcDbBlockBegin
  2
*D4
 70
     1
 10
0.0
 20
0.0
 30
0.0
  3
*D4
  1

  0
LINE
  5
C6D
330
35C
100
AcDbEntity
  8
寸法
 62
     0
370
    15
100
AcDbLine
 10
899.4918305325992
 20
1650.521773967338
 30
0.0
 11
899.4918305325992
 21
1798.824892130746
 31
0.0
  0
LINE
  5
C6E
330
35C
100
AcDbEntity
  8
寸法
 62
     0
370
    15
100
AcDbLine
 10
749.4918305325991
 20
1560.021773967338
 30
0.0
 11
749.4918305325991
 21
1798.824892130746
 31
0.0
  0
LINE
  5
C6F
330
35C
100
AcDbEntity
  8
寸法
 62
     0
370
    18
100
AcDbLine
 10
899.4918305325992
 20
1798.824892130746
 30
0.0
 11
749.4918305325991
 21
1798.824892130746
 31
0.0
  0
INSERT
  5
C70
330
35C
100
AcDbEntity
  8
寸法
 62
     0
370
    18
100
AcDbBlockReference
  2
_DotSmall
 10
899.4918305325992
 20
1798.824892130746
 30
0.0
 41
35.0
 42
35.0
 43
35.0
  0
INSERT
  5
C71
330
35C
100
AcDbEntity
  8
寸法
 62
     0
370
    18
100
AcDbBlockReference
  2
_DotSmall
 10
749.4918305325991
 20
1798.824892130746
 30
0.0
 41
35.0
 42
35.0
 43
35.0
 50
180.0
  0
MTEXT
  5
C72
330
35C
100
AcDbEntity
  8
寸法
 62
     0
100
AcDbMText
 10
824.4918305325992
 20
1817.574892130746
 30
0.0
 40
25.0
 41
0.0
 71
     5
 72
     1
  1
150
 73
     1
 44
1.0
1001
ACAD
1000
MTEXTBEGIN
1070
    73
1070
     1
1070
    44
1040
1.0
1070
    74
1070
     0
1000
MTEXTEND
  0
POINT
  5
C73
330
35C
100
AcDbEntity
  8
Defpoints
 62
     0
100
AcDbPoint
 10
899.4918305325992
 20
1585.521773967338
 30
0.0
  0
POINT
  5
C74
330
35C
100
AcDbEntity
  8
Defpoints
 62
     0
100
AcDbPoint
 10
749.4918305325991
 20
1495.021773967338
 30
0.0
  0
POINT
  5
C75
330
35C
100
AcDbEntity
  8
Defpoints
 62
     0
100
AcDbPoint
 10
749.4918305325991
 20
1798.824892130746
 30
0.0
  0
ENDBLK
  5
367
330
35C
100
AcDbEntity
  8
0
100
AcDbBlockEnd
  0
BLOCK
  5
373
330
369
100
AcDbEntity
  8
0
100
AcDbBlockBegin
  2
*D5
 70
     1
 10
0.0
 20
0.0
 30
0.0
  3
*D5
  1

  0
LINE
  5
F01
330
369
100
AcDbEntity
  8
寸法
 62
     0
370
    15
100
AcDbLine
 10
1054.991830532599
 20
1495.021773967338
 30
0.0
 11
1214.491830532599
 21
1495.021773967338
 31
0.0
  0
LINE
  5
F02
330
369
100
AcDbEntity
  8
寸法
 62
     0
370
    15
100
AcDbLine
 10
1209.346035426138
 20
1705.021773967338
 30
0.0
 11
1214.491830532599
 21
1705.021773967338
 31
0.0
  0
LINE
  5
F03
330
369
100
AcDbEntity
  8
寸法
 62
     0
370
    18
100
AcDbLine
 10
1214.491830532599
 20
1495.021773967338
 30
0.0
 11
1214.491830532599
 21
1705.021773967338
 31
0.0
  0
INSERT
  5
F04
330
369
100
AcDbEntity
  8
寸法
 62
     0
370
    18
100
AcDbBlockReference
  2
_DotSmall
 10
1214.491830532599
 20
1495.021773967338
 30
0.0
 41
35.0
 42
35.0
 43
35.0
 50
270.0
  0
INSERT
  5
F05
330
369
100
AcDbEntity
  8
寸法
 62
     0
370
    18
100
AcDbBlockReference
  2
_DotSmall
 10
1214.491830532599
 20
1705.021773967338
 30
0.0
 41
35.0
 42
35.0
 43
35.0
 50
90.0
  0
MTEXT
  5
F06
330
369
100
AcDbEntity
  8
寸法
 62
     0
100
AcDbMText
 10
1195.741830532599
 20
1600.021773967338
 30
0.0
 40
25.0
 41
0.0
 71
     5
 72
     1
  1
205
 11
0.0000000000000001
 21
1.0
 31
0.0
 73
     1
 44
1.0
1001
ACAD
1000
MTEXTBEGIN
1070
    73
1070
     1
1070
    44
1040
1.0
1070
    74
1070
     0
1000
MTEXTEND
  0
POINT
  5
F07
330
369
100
AcDbEntity
  8
Defpoints
 62
     0
100
AcDbPoint
 10
989.9918305325993
 20
1495.021773967338
 30
0.0
  0
POINT
  5
F08
330
369
100
AcDbEntity
  8
Defpoints
 62
     0
100
AcDbPoint
 10
1144.346035426138
 20
1705.021773967338
 30
0.0
  0
POINT
  5
F09
330
369
100
AcDbEntity
  8
Defpoints
 62
     0
100
AcDbPoint
 10
1214.491830532599
 20
1705.021773967338
 30
0.0
  0
ENDBLK
  5
374
330
369
100
AcDbEntity
  8
0
100
AcDbBlockEnd
  0
BLOCK
  5
3DA
330
3CF
100
AcDbEntity
  8
0
100
AcDbBlockBegin
  2
*D6
 70
     1
 10
0.0
 20
0.0
 30
0.0
  3
*D6
  1

  0
LINE
  5
C76
330
3CF
100
AcDbEntity
  8
寸法
 62
     0
370
    15
100
AcDbLine
 10
669.4918305325991
 20
1720.021773967338
 30
0.0
 11
591.3165158087259
 21
1720.021773967338
 31
0.0
  0
LINE
  5
C77
330
3CF
100
AcDbEntity
  8
寸法
 62
     0
370
    15
100
AcDbLine
 10
669.4918305325991
 20
1705.021773967338
 30
0.0
 11
591.3165158087259
 21
1705.021773967338
 31
0.0
  0
LINE
  5
C78
330
3CF
100
AcDbEntity
  8
寸法
 62
     0
370
    18
100
AcDbLine
 10
591.3165158087259
 20
1720.021773967338
 30
0.0
 11
591.3165158087259
 21
1705.021773967338
 31
0.0
  0
INSERT
  5
C79
330
3CF
100
AcDbEntity
  8
寸法
 62
     0
370
    18
100
AcDbBlockReference
  2
_DotSmall
 10
591.3165158087259
 20
1720.021773967338
 30
0.0
 41
35.0
 42
35.0
 43
35.0
 50
90.0
  0
INSERT
  5
C7A
330
3CF
100
AcDbEntity
  8
寸法
 62
     0
370
    18
100
AcDbBlockReference
  2
_DotSmall
 10
591.3165158087259
 20
1705.021773967338
 30
0.0
 41
35.0
 42
35.0
 43
35.0
 50
270.0
  0
POINT
  5
C7B
330
3CF
100
AcDbEntity
  8
Defpoints
 62
     0
100
AcDbPoint
 10
734.491830532599
 20
1720.021773967338
 30
0.0
  0
POINT
  5
C7C
330
3CF
100
AcDbEntity
  8
Defpoints
 62
     0
100
AcDbPoint
 10
734.491830532599
 20
1705.021773967338
 30
0.0
  0
POINT
  5
C7D
330
3CF
100
AcDbEntity
  8
Defpoints
 62
     0
100
AcDbPoint
 10
591.3165158087259
 20
1705.021773967338
 30
0.0
  0
ENDBLK
  5
3DB
330
3CF
100
AcDbEntity
  8
0
100
AcDbBlockEnd
  0
BLOCK
  5
3E7
330
3DD
100
AcDbEntity
  8
0
100
AcDbBlockBegin
  2
*D7
 70
     1
 10
0.0
 20
0.0
 30
0.0
  3
*D7
  1

  0
LINE
  5
E6D
330
3DD
100
AcDbEntity
  8
寸法
 62
     0
370
    15
100
AcDbLine
 10
669.4918305325991
 20
1705.021773967338
 30
0.0
 11
591.3165158087259
 21
1705.021773967338
 31
0.0
  0
LINE
  5
E6E
330
3DD
100
AcDbEntity
  8
寸法
 62
     0
370
    15
100
AcDbLine
 10
669.4918305325991
 20
1285.021773967338
 30
0.0
 11
591.3165158087259
 21
1285.021773967338
 31
0.0
  0
LINE
  5
E6F
330
3DD
100
AcDbEntity
  8
寸法
 62
     0
370
    18
100
AcDbLine
 10
591.3165158087259
 20
1705.021773967338
 30
0.0
 11
591.3165158087259
 21
1285.021773967338
 31
0.0
  0
INSERT
  5
E70
330
3DD
100
AcDbEntity
  8
寸法
 62
     0
370
    18
100
AcDbBlockReference
  2
_DotSmall
 10
591.3165158087259
 20
1705.021773967338
 30
0.0
 41
35.0
 42
35.0
 43
35.0
 50
90.0
  0
INSERT
  5
E71
330
3DD
100
AcDbEntity
  8
寸法
 62
     0
370
    18
100
AcDbBlockReference
  2
_DotSmall
 10
591.3165158087259
 20
1285.021773967338
 30
0.0
 41
35.0
 42
35.0
 43
35.0
 50
270.0
  0
MTEXT
  5
E72
330
3DD
100
AcDbEntity
  8
寸法
 62
     0
100
AcDbMText
 10
572.5665158087256
 20
1495.021773967338
 30
0.0
 40
25.0
 41
0.0
 71
     5
 72
     1
  1
410
 11
0.0000000000000001
 21
1.0
 31
0.0
 73
     1
 44
1.0
1001
ACAD
1000
MTEXTBEGIN
1070
    73
1070
     1
1070
    44
1040
1.0
1070
    74
1070
     0
1000
MTEXTEND
  0
POINT
  5
E73
330
3DD
100
AcDbEntity
  8
Defpoints
 62
     0
100
AcDbPoint
 10
734.491830532599
 20
1705.021773967338
 30
0.0
  0
POINT
  5
E74
330
3DD
100
AcDbEntity
  8
Defpoints
 62
     0
100
AcDbPoint
 10
734.491830532599
 20
1285.021773967338
 30
0.0
  0
POINT
  5
E75
330
3DD
100
AcDbEntity
  8
Defpoints
 62
     0
100
AcDbPoint
 10
591.3165158087259
 20
1285.021773967338
 30
0.0
  0
ENDBLK
  5
3E8
330
3DD
100
AcDbEntity
  8
0
100
AcDbBlockEnd
  0
BLOCK
  5
3F4
330
3EA
100
AcDbEntity
  8
0
100
AcDbBlockBegin
  2
*D8
 70
     1
 10
0.0
 20
0.0
 30
0.0
  3
*D8
  1

  0
LINE
  5
C5B
330
3EA
100
AcDbEntity
  8
寸法
 62
     0
370
    15
100
AcDbLine
 10
669.4918305325991
 20
1285.021773967338
 30
0.0
 11
591.3165158087259
 21
1285.021773967338
 31
0.0
  0
LINE
  5
C5C
330
3EA
100
AcDbEntity
  8
寸法
 62
     0
370
    15
100
AcDbLine
 10
669.4918305325991
 20
1270.021773967338
 30
0.0
 11
591.3165158087259
 21
1270.021773967338
 31
0.0
  0
LINE
  5
C5D
330
3EA
100
AcDbEntity
  8
寸法
 62
     0
370
    18
100
AcDbLine
 10
591.3165158087259
 20
1285.021773967338
 30
0.0
 11
591.3165158087259
 21
1270.021773967338
 31
0.0
  0
MTEXT
  5
C5E
330
3EA
100
AcDbEntity
  8
寸法
 62
     0
370
    18
100
AcDbMText
 10
577.0004101041404
 20
1227.337533259112
 30
0.0
 40
25.0
 41
0.0
 71
     5
 72
     1
  1
15
 11
0.0000000000000001
 21
1.0
 31
0.0
 73
     1
 44
1.0
1001
ACAD
1000
MTEXTBEGIN
1070
    73
1070
     1
1070
    44
1040
1.0
1070
    74
1070
     0
1000
MTEXTEND
  0
INSERT
  5
C5F
330
3EA
100
AcDbEntity
  8
寸法
 62
     0
370
    18
100
AcDbBlockReference
  2
_DotSmall
 10
591.3165158087259
 20
1285.021773967338
 30
0.0
 41
35.0
 42
35.0
 43
35.0
 50
90.0
  0
INSERT
  5
C60
330
3EA
100
AcDbEntity
  8
寸法
 62
     0
370
    18
100
AcDbBlockReference
  2
_DotSmall
 10
591.3165158087259
 20
1270.021773967338
 30
0.0
 41
35.0
 42
35.0
 43
35.0
 50
270.0
  0
POINT
  5
C61
330
3EA
100
AcDbEntity
  8
Defpoints
 62
     0
100
AcDbPoint
 10
734.491830532599
 20
1285.021773967338
 30
0.0
  0
POINT
  5
C62
330
3EA
100
AcDbEntity
  8
Defpoints
 62
     0
100
AcDbPoint
 10
734.491830532599
 20
1270.021773967338
 30
0.0
  0
POINT
  5
C63
330
3EA
100
AcDbEntity
  8
Defpoints
 62
     0
100
AcDbPoint
 10
591.3165158087259
 20
1270.021773967338
 30
0.0
  0
ENDBLK
  5
3F5
330
3EA
100
AcDbEntity
  8
0
100
AcDbBlockEnd
  0
BLOCK
  5
401
330
3F7
100
AcDbEntity
  8
0
100
AcDbBlockBegin
  2
*D9
 70
     1
 10
0.0
 20
0.0
 30
0.0
  3
*D9
  1

  0
LINE
  5
E76
330
3F7
100
AcDbEntity
  8
寸法
 62
     0
370
    15
100
AcDbLine
 10
669.4918305325991
 20
1720.021773967338
 30
0.0
 11
522.4766174840416
 21
1720.021773967338
 31
0.0
  0
LINE
  5
E77
330
3F7
100
AcDbEntity
  8
寸法
 62
     0
370
    15
100
AcDbLine
 10
669.4918305325991
 20
1270.021773967338
 30
0.0
 11
522.4766174840415
 21
1270.021773967338
 31
0.0
  0
LINE
  5
E78
330
3F7
100
AcDbEntity
  8
寸法
 62
     0
370
    18
100
AcDbLine
 10
522.4766174840416
 20
1720.021773967338
 30
0.0
 11
522.4766174840415
 21
1270.021773967338
 31
0.0
  0
INSERT
  5
E79
330
3F7
100
AcDbEntity
  8
寸法
 62
     0
370
    18
100
AcDbBlockReference
  2
_DotSmall
 10
522.4766174840416
 20
1720.021773967338
 30
0.0
 41
35.0
 42
35.0
 43
35.0
 50
90.0
  0
INSERT
  5
E7A
330
3F7
100
AcDbEntity
  8
寸法
 62
     0
370
    18
100
AcDbBlockReference
  2
_DotSmall
 10
522.4766174840415
 20
1270.021773967338
 30
0.0
 41
35.0
 42
35.0
 43
35.0
 50
270.0
  0
MTEXT
  5
E7B
330
3F7
100
AcDbEntity
  8
寸法
 62
     0
100
AcDbMText
 10
503.7266174840413
 20
1495.021773967338
 30
0.0
 40
25.0
 41
0.0
 71
     5
 72
     1
  1
440
 11
0.0000000000000001
 21
1.0
 31
0.0
 73
     1
 44
1.0
1001
ACAD
1000
MTEXTBEGIN
1070
    73
1070
     1
1070
    44
1040
1.0
1070
    74
1070
     0
1000
MTEXTEND
  0
POINT
  5
E7C
330
3F7
100
AcDbEntity
  8
Defpoints
 62
     0
100
AcDbPoint
 10
734.491830532599
 20
1720.021773967338
 30
0.0
  0
POINT
  5
E7D
330
3F7
100
AcDbEntity
  8
Defpoints
 62
     0
100
AcDbPoint
 10
734.491830532599
 20
1270.021773967338
 30
0.0
  0
POINT
  5
E7E
330
3F7
100
AcDbEntity
  8
Defpoints
 62
     0
100
AcDbPoint
 10
522.4766174840415
 20
1270.021773967338
 30
0.0
  0
ENDBLK
  5
402
330
3F7
100
AcDbEntity
  8
0
100
AcDbBlockEnd
  0
BLOCK
  5
449
330
43E
100
AcDbEntity
  8
0
100
AcDbBlockBegin
  2
*D10
 70
     1
 10
0.0
 20
0.0
 30
0.0
  3
*D10
  1

  0
LINE
  5
C64
330
43E
100
AcDbEntity
  8
寸法
 62
     0
370
    15
100
AcDbLine
 10
734.491830532599
 20
1205.021773967338
 30
0.0
 11
734.491830532599
 21
1122.089656197283
 31
0.0
  0
LINE
  5
C65
330
43E
100
AcDbEntity
  8
寸法
 62
     0
370
    15
100
AcDbLine
 10
749.4918305325991
 20
1205.021773967338
 30
0.0
 11
749.4918305325991
 21
1122.089656197283
 31
0.0
  0
LINE
  5
C66
330
43E
100
AcDbEntity
  8
寸法
 62
     0
370
    18
100
AcDbLine
 10
734.491830532599
 20
1122.089656197283
 30
0.0
 11
749.4918305325991
 21
1122.089656197283
 31
0.0
  0
LINE
  5
C67
330
43E
100
AcDbEntity
  8
寸法
 62
     0
370
    18
100
AcDbLine
 10
749.4918305325991
 20
1122.089656197283
 30
0.0
 11
815.2418305325991
 21
1122.089656197283
 31
0.0
  0
INSERT
  5
C68
330
43E
100
AcDbEntity
  8
寸法
 62
     0
370
    18
100
AcDbBlockReference
  2
_DotSmall
 10
734.491830532599
 20
1122.089656197283
 30
0.0
 41
35.0
 42
35.0
 43
35.0
 50
180.0
  0
INSERT
  5
C69
330
43E
100
AcDbEntity
  8
寸法
 62
     0
370
    18
100
AcDbBlockReference
  2
_DotSmall
 10
749.4918305325991
 20
1122.089656197283
 30
0.0
 41
35.0
 42
35.0
 43
35.0
  0
POINT
  5
C6A
330
43E
100
AcDbEntity
  8
Defpoints
 62
     0
100
AcDbPoint
 10
734.491830532599
 20
1270.021773967338
 30
0.0
  0
POINT
  5
C6B
330
43E
100
AcDbEntity
  8
Defpoints
 62
     0
100
AcDbPoint
 10
749.4918305325991
 20
1270.021773967338
 30
0.0
  0
POINT
  5
C6C
330
43E
100
AcDbEntity
  8
Defpoints
 62
     0
100
AcDbPoint
 10
749.4918305325991
 20
1122.089656197283
 30
0.0
  0
ENDBLK
  5
44A
330
43E
100
AcDbEntity
  8
0
100
AcDbBlockEnd
  0
BLOCK
  5
456
330
44C
100
AcDbEntity
  8
0
100
AcDbBlockBegin
  2
*D11
 70
     1
 10
0.0
 20
0.0
 30
0.0
  3
*D11
  1

  0
LINE
  5
C40
330
44C
100
AcDbEntity
  8
寸法
 62
     0
370
    15
100
AcDbLine
 10
749.4918305325991
 20
1205.021773967338
 30
0.0
 11
749.4918305325991
 21
1122.089656197283
 31
0.0
  0
LINE
  5
C41
330
44C
100
AcDbEntity
  8
寸法
 62
     0
370
    15
100
AcDbLine
 10
1679.491830532599
 20
1205.021773967338
 30
0.0
 11
1679.491830532599
 21
1122.089656197283
 31
0.0
  0
LINE
  5
C42
330
44C
100
AcDbEntity
  8
寸法
 62
     0
370
    18
100
AcDbLine
 10
749.4918305325991
 20
1122.089656197283
 30
0.0
 11
1679.491830532599
 21
1122.089656197283
 31
0.0
  0
INSERT
  5
C43
330
44C
100
AcDbEntity
  8
寸法
 62
     0
370
    18
100
AcDbBlockReference
  2
_DotSmall
 10
749.4918305325991
 20
1122.089656197283
 30
0.0
 41
35.0
 42
35.0
 43
35.0
 50
180.0
  0
INSERT
  5
C44
330
44C
100
AcDbEntity
  8
寸法
 62
     0
370
    18
100
AcDbBlockReference
  2
_DotSmall
 10
1679.491830532599
 20
1122.089656197283
 30
0.0
 41
35.0
 42
35.0
 43
35.0
  0
MTEXT
  5
C45
330
44C
100
AcDbEntity
  8
寸法
 62
     0
100
AcDbMText
 10
1214.491830532599
 20
1140.839656197283
 30
0.0
 40
25.0
 41
0.0
 71
     5
 72
     1
  1
930
 73
     1
 44
1.0
1001
ACAD
1000
MTEXTBEGIN
1070
    73
1070
     1
1070
    44
1040
1.0
1070
    74
1070
     0
1000
MTEXTEND
  0
POINT
  5
C46
330
44C
100
AcDbEntity
  8
Defpoints
 62
     0
100
AcDbPoint
 10
749.4918305325991
 20
1270.021773967338
 30
0.0
  0
POINT
  5
C47
330
44C
100
AcDbEntity
  8
Defpoints
 62
     0
100
AcDbPoint
 10
1679.491830532599
 20
1270.021773967338
 30
0.0
  0
POINT
  5
C48
330
44C
100
AcDbEntity
  8
Defpoints
 62
     0
100
AcDbPoint
 10
1679.491830532599
 20
1122.089656197283
 30
0.0
  0
ENDBLK
  5
457
330
44C
100
AcDbEntity
  8
0
100
AcDbBlockEnd
  0
BLOCK
  5
465
330
459
100
AcDbEntity
  8
0
100
AcDbBlockBegin
  2
*D12
 70
     1
 10
0.0
 20
0.0
 30
0.0
  3
*D12
  1

  0
LINE
  5
C7E
330
459
100
AcDbEntity
  8
寸法
 62
     0
370
    15
100
AcDbLine
 10
1679.491830532599
 20
1205.021773967338
 30
0.0
 11
1679.491830532599
 21
1122.089656197283
 31
0.0
  0
LINE
  5
C7F
330
459
100
AcDbEntity
  8
寸法
 62
     0
370
    15
100
AcDbLine
 10
1694.491830532599
 20
1205.021773967338
 30
0.0
 11
1694.491830532599
 21
1122.089656197283
 31
0.0
  0
LINE
  5
C80
330
459
100
AcDbEntity
  8
寸法
 62
     0
370
    18
100
AcDbLine
 10
1679.491830532599
 20
1122.089656197283
 30
0.0
 11
1694.491830532599
 21
1122.089656197283
 31
0.0
  0
INSERT
  5
C81
330
459
100
AcDbEntity
  8
寸法
 62
     0
370
    18
100
AcDbBlockReference
  2
_DotSmall
 10
1679.491830532599
 20
1122.089656197283
 30
0.0
 41
35.0
 42
35.0
 43
35.0
 50
180.0
  0
INSERT
  5
C82
330
459
100
AcDbEntity
  8
寸法
 62
     0
370
    18
100
AcDbBlockReference
  2
_DotSmall
 10
1694.491830532599
 20
1122.089656197283
 30
0.0
 41
35.0
 42
35.0
 43
35.0
  0
POINT
  5
C83
330
459
100
AcDbEntity
  8
Defpoints
 62
     0
100
AcDbPoint
 10
1679.491830532599
 20
1270.021773967338
 30
0.0
  0
POINT
  5
C84
330
459
100
AcDbEntity
  8
Defpoints
 62
     0
100
AcDbPoint
 10
1694.491830532599
 20
1270.021773967338
 30
0.0
  0
POINT
  5
C85
330
459
100
AcDbEntity
  8
Defpoints
 62
     0
100
AcDbPoint
 10
1694.491830532599
 20
1122.089656197283
 30
0.0
  0
ENDBLK
  5
466
330
459
100
AcDbEntity
  8
0
100
AcDbBlockEnd
  0
BLOCK
  5
4AE
330
4A4
100
AcDbEntity
  8
0
100
AcDbBlockBegin
  2
*D13
 70
     1
 10
0.0
 20
0.0
 30
0.0
  3
*D13
  1

  0
LINE
  5
C37
330
4A4
100
AcDbEntity
  8
寸法
 62
     0
370
    15
100
AcDbLine
 10
734.491830532599
 20
1205.021773967338
 30
0.0
 11
734.491830532599
 21
1044.297746041414
 31
0.0
  0
LINE
  5
C38
330
4A4
100
AcDbEntity
  8
寸法
 62
     0
370
    15
100
AcDbLine
 10
1694.491830532599
 20
1205.021773967338
 30
0.0
 11
1694.491830532599
 21
1044.297746041414
 31
0.0
  0
LINE
  5
C39
330
4A4
100
AcDbEntity
  8
寸法
 62
     0
370
    18
100
AcDbLine
 10
734.491830532599
 20
1044.297746041414
 30
0.0
 11
1694.491830532599
 21
1044.297746041414
 31
0.0
  0
INSERT
  5
C3A
330
4A4
100
AcDbEntity
  8
寸法
 62
     0
370
    18
100
AcDbBlockReference
  2
_DotSmall
 10
734.491830532599
 20
1044.297746041414
 30
0.0
 41
35.0
 42
35.0
 43
35.0
 50
180.0
  0
INSERT
  5
C3B
330
4A4
100
AcDbEntity
  8
寸法
 62
     0
370
    18
100
AcDbBlockReference
  2
_DotSmall
 10
1694.491830532599
 20
1044.297746041414
 30
0.0
 41
35.0
 42
35.0
 43
35.0
  0
MTEXT
  5
C3C
330
4A4
100
AcDbEntity
  8
寸法
 62
     0
100
AcDbMText
 10
1214.491830532599
 20
1063.047746041414
 30
0.0
 40
25.0
 41
0.0
 71
     5
 72
     1
  1
960
 73
     1
 44
1.0
1001
ACAD
1000
MTEXTBEGIN
1070
    73
1070
     1
1070
    44
1040
1.0
1070
    74
1070
     0
1000
MTEXTEND
  0
POINT
  5
C3D
330
4A4
100
AcDbEntity
  8
Defpoints
 62
     0
100
AcDbPoint
 10
734.491830532599
 20
1270.021773967338
 30
0.0
  0
POINT
  5
C3E
330
4A4
100
AcDbEntity
  8
Defpoints
 62
     0
100
AcDbPoint
 10
1694.491830532599
 20
1270.021773967338
 30
0.0
  0
POINT
  5
C3F
330
4A4
100
AcDbEntity
  8
Defpoints
 62
     0
100
AcDbPoint
 10
1694.491830532599
 20
1044.297746041414
 30
0.0
  0
ENDBLK
  5
4AF
330
4A4
100
AcDbEntity
  8
0
100
AcDbBlockEnd
  0
BLOCK
  5
503
330
4F9
100
AcDbEntity
  8
0
100
AcDbBlockBegin
  2
*D14
 70
     1
 10
0.0
 20
0.0
 30
0.0
  3
*D14
  1

  0
LINE
  5
E3C
330
4F9
100
AcDbEntity
  8
寸法
 62
     0
370
    15
100
AcDbLine
 10
819.4918305325991
 20
560.021773967338
 30
0.0
 11
819.4918305325991
 21
508.5943666662651
 31
0.0
  0
LINE
  5
E3D
330
4F9
100
AcDbEntity
  8
寸法
 62
     0
370
    15
100
AcDbLine
 10
979.4918305325991
 20
560.021773967338
 30
0.0
 11
979.4918305325991
 21
508.5943666662651
 31
0.0
  0
LINE
  5
E3E
330
4F9
100
AcDbEntity
  8
寸法
 62
     0
370
    18
100
AcDbLine
 10
819.4918305325991
 20
508.5943666662651
 30
0.0
 11
979.4918305325991
 21
508.5943666662651
 31
0.0
  0
INSERT
  5
E3F
330
4F9
100
AcDbEntity
  8
寸法
 62
     0
370
    18
100
AcDbBlockReference
  2
_DotSmall
 10
819.4918305325991
 20
508.5943666662651
 30
0.0
 41
35.0
 42
35.0
 43
35.0
 50
180.0
  0
INSERT
  5
E40
330
4F9
100
AcDbEntity
  8
寸法
 62
     0
370
    18
100
AcDbBlockReference
  2
_DotSmall
 10
979.4918305325991
 20
508.5943666662651
 30
0.0
 41
35.0
 42
35.0
 43
35.0
  0
MTEXT
  5
E41
330
4F9
100
AcDbEntity
  8
寸法
 62
     0
100
AcDbMText
 10
899.4918305325992
 20
527.3443666662651
 30
0.0
 40
25.0
 41
0.0
 71
     5
 72
     1
  1
158
 73
     1
 44
1.0
1001
ACAD
1000
MTEXTBEGIN
1070
    73
1070
     1
1070
    44
1040
1.0
1070
    74
1070
     0
1000
MTEXTEND
  0
POINT
  5
E42
330
4F9
100
AcDbEntity
  8
Defpoints
 62
     0
100
AcDbPoint
 10
819.4918305325991
 20
625.021773967338
 30
0.0
  0
POINT
  5
E43
330
4F9
100
AcDbEntity
  8
Defpoints
 62
     0
100
AcDbPoint
 10
979.4918305325991
 20
625.021773967338
 30
0.0
  0
POINT
  5
E44
330
4F9
100
AcDbEntity
  8
Defpoints
 62
     0
100
AcDbPoint
 10
979.4918305325991
 20
508.5943666662651
 30
0.0
  0
ENDBLK
  5
504
330
4F9
100
AcDbEntity
  8
0
100
AcDbBlockEnd
  0
BLOCK
  5
510
330
506
100
AcDbEntity
  8
0
100
AcDbBlockBegin
  2
*D15
 70
     1
 10
0.0
 20
0.0
 30
0.0
  3
*D15
  1

  0
LINE
  5
C1C
330
506
100
AcDbEntity
  8
寸法
 62
     0
370
    15
100
AcDbLine
 10
808.9918305325991
 20
560.0217739673381
 30
0.0
 11
808.9918305325991
 21
448.6349680973362
 31
0.0
  0
LINE
  5
C1D
330
506
100
AcDbEntity
  8
寸法
 62
     0
370
    15
100
AcDbLine
 10
989.9918305325991
 20
560.021773967338
 30
0.0
 11
989.9918305325991
 21
448.6349680973362
 31
0.0
  0
LINE
  5
C1E
330
506
100
AcDbEntity
  8
寸法
 62
     0
370
    18
100
AcDbLine
 10
808.9918305325991
 20
448.6349680973362
 30
0.0
 11
989.9918305325991
 21
448.6349680973362
 31
0.0
  0
INSERT
  5
C1F
330
506
100
AcDbEntity
  8
寸法
 62
     0
370
    18
100
AcDbBlockReference
  2
_DotSmall
 10
808.9918305325991
 20
448.6349680973362
 30
0.0
 41
35.0
 42
35.0
 43
35.0
 50
180.0
  0
INSERT
  5
C20
330
506
100
AcDbEntity
  8
寸法
 62
     0
370
    18
100
AcDbBlockReference
  2
_DotSmall
 10
989.9918305325991
 20
448.6349680973362
 30
0.0
 41
35.0
 42
35.0
 43
35.0
  0
MTEXT
  5
C21
330
506
100
AcDbEntity
  8
寸法
 62
     0
100
AcDbMText
 10
899.4918305325992
 20
467.3849680973362
 30
0.0
 40
25.0
 41
0.0
 71
     5
 72
     1
  1
181
 73
     1
 44
1.0
1001
ACAD
1000
MTEXTBEGIN
1070
    73
1070
     1
1070
    44
1040
1.0
1070
    74
1070
     0
1000
MTEXTEND
  0
POINT
  5
C22
330
506
100
AcDbEntity
  8
Defpoints
 62
     0
100
AcDbPoint
 10
808.9918305325991
 20
625.0217739673381
 30
0.0
  0
POINT
  5
C23
330
506
100
AcDbEntity
  8
Defpoints
 62
     0
100
AcDbPoint
 10
989.9918305325991
 20
625.021773967338
 30
0.0
  0
POINT
  5
C24
330
506
100
AcDbEntity
  8
Defpoints
 62
     0
100
AcDbPoint
 10
989.9918305325991
 20
448.6349680973362
 30
0.0
  0
ENDBLK
  5
511
330
506
100
AcDbEntity
  8
0
100
AcDbBlockEnd
  0
BLOCK
  5
53E
330
533
100
AcDbEntity
  8
0
100
AcDbBlockBegin
  2
*D16
 70
     1
 10
0.0
 20
0.0
 30
0.0
  3
*D16
  1

  0
LINE
  5
E08
330
533
100
AcDbEntity
  8
寸法
 62
     0
370
    15
100
AcDbLine
 10
2203.063290372789
 20
1201.047859283097
 30
0.0
 11
2203.063290372789
 21
1145.141125245662
 31
0.0
  0
LINE
  5
E09
330
533
100
AcDbEntity
  8
寸法
 62
     0
370
    15
100
AcDbLine
 10
2188.063290372789
 20
1201.047859283097
 30
0.0
 11
2188.063290372789
 21
1145.141125245662
 31
0.0
  0
LINE
  5
E0A
330
533
100
AcDbEntity
  8
寸法
 62
     0
370
    18
100
AcDbLine
 10
2203.063290372789
 20
1145.141125245662
 30
0.0
 11
2188.063290372789
 21
1145.141125245662
 31
0.0
  0
INSERT
  5
E0B
330
533
100
AcDbEntity
  8
寸法
 62
     0
370
    18
100
AcDbBlockReference
  2
_DotSmall
 10
2203.063290372789
 20
1145.141125245662
 30
0.0
 41
15.0
 42
15.0
 43
15.0
  0
INSERT
  5
E0C
330
533
100
AcDbEntity
  8
寸法
 62
     0
370
    18
100
AcDbBlockReference
  2
_DotSmall
 10
2188.063290372789
 20
1145.141125245662
 30
0.0
 41
15.0
 42
15.0
 43
15.0
 50
180.0
  0
POINT
  5
E0D
330
533
100
AcDbEntity
  8
Defpoints
 62
     0
100
AcDbPoint
 10
2203.063290372789
 20
1266.047859283097
 30
0.0
  0
POINT
  5
E0E
330
533
100
AcDbEntity
  8
Defpoints
 62
     0
100
AcDbPoint
 10
2188.063290372789
 20
1266.047859283097
 30
0.0
  0
POINT
  5
E0F
330
533
100
AcDbEntity
  8
Defpoints
 62
     0
100
AcDbPoint
 10
2188.063290372789
 20
1145.141125245662
 30
0.0
  0
ENDBLK
  5
53F
330
533
100
AcDbEntity
  8
0
100
AcDbBlockEnd
  0
BLOCK
  5
553
330
549
100
AcDbEntity
  8
0
100
AcDbBlockBegin
  2
*D17
 70
     1
 10
0.0
 20
0.0
 30
0.0
  3
*D17
  1

  0
LINE
  5
DFF
330
549
100
AcDbEntity
  8
寸法
 62
     0
370
    15
100
AcDbLine
 10
2203.063290372789
 20
1177.753898062659
 30
0.0
 11
2203.063290372789
 21
1081.769438346619
 31
0.0
  0
LINE
  5
E00
330
549
100
AcDbEntity
  8
寸法
 62
     0
370
    15
100
AcDbLine
 10
2003.063290372789
 20
1199.938627299283
 30
0.0
 11
2003.063290372789
 21
1081.769438346619
 31
0.0
  0
LINE
  5
E01
330
549
100
AcDbEntity
  8
寸法
 62
     0
370
    18
100
AcDbLine
 10
2203.063290372789
 20
1081.769438346619
 30
0.0
 11
2003.063290372789
 21
1081.769438346619
 31
0.0
  0
INSERT
  5
E02
330
549
100
AcDbEntity
  8
寸法
 62
     0
370
    18
100
AcDbBlockReference
  2
_DotSmall
 10
2203.063290372789
 20
1081.769438346619
 30
0.0
 41
15.0
 42
15.0
 43
15.0
  0
INSERT
  5
E03
330
549
100
AcDbEntity
  8
寸法
 62
     0
370
    18
100
AcDbBlockReference
  2
_DotSmall
 10
2003.063290372789
 20
1081.769438346619
 30
0.0
 41
15.0
 42
15.0
 43
15.0
 50
180.0
  0
MTEXT
  5
E04
330
549
100
AcDbEntity
  8
寸法
 62
     0
100
AcDbMText
 10
2103.063290372789
 20
1100.519438346619
 30
0.0
 40
25.0
 41
0.0
 71
     5
 72
     1
  1
200
 73
     1
 44
1.0
1001
ACAD
1000
MTEXTBEGIN
1070
    73
1070
     1
1070
    44
1040
1.0
1070
    74
1070
     0
1000
MTEXTEND
  0
POINT
  5
E05
330
549
100
AcDbEntity
  8
Defpoints
 62
     0
100
AcDbPoint
 10
2203.063290372789
 20
1242.753898062659
 30
0.0
  0
POINT
  5
E06
330
549
100
AcDbEntity
  8
Defpoints
 62
     0
100
AcDbPoint
 10
2003.063290372789
 20
1264.938627299283
 30
0.0
  0
POINT
  5
E07
330
549
100
AcDbEntity
  8
Defpoints
 62
     0
100
AcDbPoint
 10
2003.063290372789
 20
1081.769438346619
 30
0.0
  0
ENDBLK
  5
554
330
549
100
AcDbEntity
  8
0
100
AcDbBlockEnd
  0
BLOCK
  5
574
330
56A
100
AcDbEntity
  8
0
100
AcDbBlockBegin
  2
*D18
 70
     1
 10
0.0
 20
0.0
 30
0.0
  3
*D18
  1

  0
LINE
  5
E45
330
56A
100
AcDbEntity
  8
寸法
 62
     0
370
    15
100
AcDbLine
 10
2278.063290372789
 20
1575.021773967338
 30
0.0
 11
2323.369434464709
 21
1575.021773967338
 31
0.0
  0
LINE
  5
E46
330
56A
100
AcDbEntity
  8
寸法
 62
     0
370
    15
100
AcDbLine
 10
2278.063290372789
 20
1415.021773967338
 30
0.0
 11
2323.369434464709
 21
1415.021773967338
 31
0.0
  0
LINE
  5
E47
330
56A
100
AcDbEntity
  8
寸法
 62
     0
370
    18
100
AcDbLine
 10
2323.369434464709
 20
1575.021773967338
 30
0.0
 11
2323.369434464709
 21
1415.021773967338
 31
0.0
  0
INSERT
  5
E48
330
56A
100
AcDbEntity
  8
寸法
 62
     0
370
    18
100
AcDbBlockReference
  2
_DotSmall
 10
2323.369434464709
 20
1575.021773967338
 30
0.0
 41
35.0
 42
35.0
 43
35.0
 50
90.0
  0
INSERT
  5
E49
330
56A
100
AcDbEntity
  8
寸法
 62
     0
370
    18
100
AcDbBlockReference
  2
_DotSmall
 10
2323.369434464709
 20
1415.021773967338
 30
0.0
 41
35.0
 42
35.0
 43
35.0
 50
270.0
  0
MTEXT
  5
E4A
330
56A
100
AcDbEntity
  8
寸法
 62
     0
100
AcDbMText
 10
2304.619434464709
 20
1495.021773967338
 30
0.0
 40
25.0
 41
0.0
 71
     5
 72
     1
  1
158
 11
0.0000000000000001
 21
1.0
 31
0.0
 73
     1
 44
1.0
1001
ACAD
1000
MTEXTBEGIN
1070
    73
1070
     1
1070
    44
1040
1.0
1070
    74
1070
     0
1000
MTEXTEND
  0
POINT
  5
E4B
330
56A
100
AcDbEntity
  8
Defpoints
 62
     0
100
AcDbPoint
 10
2213.063290372789
 20
1575.021773967338
 30
0.0
  0
POINT
  5
E4C
330
56A
100
AcDbEntity
  8
Defpoints
 62
     0
100
AcDbPoint
 10
2213.063290372789
 20
1415.021773967338
 30
0.0
  0
POINT
  5
E4D
330
56A
100
AcDbEntity
  8
Defpoints
 62
     0
100
AcDbPoint
 10
2323.369434464709
 20
1415.021773967338
 30
0.0
  0
ENDBLK
  5
575
330
56A
100
AcDbEntity
  8
0
100
AcDbBlockEnd
  0
BLOCK
  5
58A
330
580
100
AcDbEntity
  8
0
100
AcDbBlockBegin
  2
*D19
 70
     1
 10
0.0
 20
0.0
 30
0.0
  3
*D19
  1

  0
LINE
  5
BDE
330
580
100
AcDbEntity
  8
寸法
 62
     0
370
    15
100
AcDbLine
 10
2278.063290372789
 20
1585.521773967338
 30
0.0
 11
2388.291022429551
 21
1585.521773967338
 31
0.0
  0
LINE
  5
BDF
330
580
100
AcDbEntity
  8
寸法
 62
     0
370
    15
100
AcDbLine
 10
2278.063290372789
 20
1404.521773967338
 30
0.0
 11
2388.291022429551
 21
1404.521773967338
 31
0.0
  0
LINE
  5
BE0
330
580
100
AcDbEntity
  8
寸法
 62
     0
370
    18
100
AcDbLine
 10
2388.291022429551
 20
1585.521773967338
 30
0.0
 11
2388.291022429551
 21
1404.521773967338
 31
0.0
  0
INSERT
  5
BE1
330
580
100
AcDbEntity
  8
寸法
 62
     0
370
    18
100
AcDbBlockReference
  2
_DotSmall
 10
2388.291022429551
 20
1585.521773967338
 30
0.0
 41
35.0
 42
35.0
 43
35.0
 50
90.0
  0
INSERT
  5
BE2
330
580
100
AcDbEntity
  8
寸法
 62
     0
370
    18
100
AcDbBlockReference
  2
_DotSmall
 10
2388.291022429551
 20
1404.521773967338
 30
0.0
 41
35.0
 42
35.0
 43
35.0
 50
270.0
  0
MTEXT
  5
BE3
330
580
100
AcDbEntity
  8
寸法
 62
     0
100
AcDbMText
 10
2369.541022429551
 20
1495.021773967338
 30
0.0
 40
25.0
 41
0.0
 71
     5
 72
     1
  1
181
 11
0.0000000000000001
 21
1.0
 31
0.0
 73
     1
 44
1.0
1001
ACAD
1000
MTEXTBEGIN
1070
    73
1070
     1
1070
    44
1040
1.0
1070
    74
1070
     0
1000
MTEXTEND
  0
POINT
  5
BE4
330
580
100
AcDbEntity
  8
Defpoints
 62
     0
100
AcDbPoint
 10
2213.063290372789
 20
1585.521773967338
 30
0.0
  0
POINT
  5
BE5
330
580
100
AcDbEntity
  8
Defpoints
 62
     0
100
AcDbPoint
 10
2213.063290372789
 20
1404.521773967338
 30
0.0
  0
POINT
  5
BE6
330
580
100
AcDbEntity
  8
Defpoints
 62
     0
100
AcDbPoint
 10
2388.291022429551
 20
1404.521773967338
 30
0.0
  0
ENDBLK
  5
58B
330
580
100
AcDbEntity
  8
0
100
AcDbBlockEnd
  0
BLOCK
  5
CB5
330
CAC
100
AcDbEntity
  8
0
100
AcDbBlockBegin
  2
*D20
 70
     1
 10
0.0
 20
0.0
 30
0.0
  3
*D20
  1

  0
LINE
  5
DF7
330
CAC
100
AcDbEntity
  8
寸法
 62
     0
370
    15
100
AcDbLine
 10
684.4918305325996
 20
650.021773967338
 30
0.0
 11
630.6000800448924
 21
650.021773967338
 31
0.0
  0
LINE
  5
DF8
330
CAC
100
AcDbEntity
  8
寸法
 62
     0
370
    15
100
AcDbLine
 10
684.4918305325996
 20
635.021773967338
 30
0.0
 11
630.6000800448924
 21
635.021773967338
 31
0.0
  0
LINE
  5
DF9
330
CAC
100
AcDbEntity
  8
寸法
 62
     0
370
    15
100
AcDbLine
 10
630.6000800448924
 20
650.021773967338
 30
0.0
 11
630.6000800448924
 21
635.021773967338
 31
0.0
  0
INSERT
  5
DFA
330
CAC
100
AcDbEntity
  8
寸法
 62
     0
370
    15
100
AcDbBlockReference
  2
_DotSmall
 10
630.6000800448924
 20
650.021773967338
 30
0.0
 41
15.0
 42
15.0
 43
15.0
 50
90.0
  0
INSERT
  5
DFB
330
CAC
100
AcDbEntity
  8
寸法
 62
     0
370
    15
100
AcDbBlockReference
  2
_DotSmall
 10
630.6000800448924
 20
635.021773967338
 30
0.0
 41
15.0
 42
15.0
 43
15.0
 50
270.0
  0
POINT
  5
DFC
330
CAC
100
AcDbEntity
  8
Defpoints
 62
     0
100
AcDbPoint
 10
749.4918305325995
 20
650.021773967338
 30
0.0
  0
POINT
  5
DFD
330
CAC
100
AcDbEntity
  8
Defpoints
 62
     0
100
AcDbPoint
 10
749.4918305325995
 20
635.021773967338
 30
0.0
  0
POINT
  5
DFE
330
CAC
100
AcDbEntity
  8
Defpoints
 62
     0
100
AcDbPoint
 10
630.6000800448924
 20
635.021773967338
 30
0.0
  0
ENDBLK
  5
CB6
330
CAC
100
AcDbEntity
  8
0
100
AcDbBlockEnd
  0
BLOCK
  5
CC1
330
CB7
100
AcDbEntity
  8
0
100
AcDbBlockBegin
  2
*D21
 70
     1
 10
0.0
 20
0.0
 30
0.0
  3
*D21
  1

  0
LINE
  5
DEE
330
CB7
100
AcDbEntity
  8
寸法
 62
     0
370
    15
100
AcDbLine
 10
684.4918305325996
 20
835.021773967338
 30
0.0
 11
561.8357662996496
 21
835.021773967338
 31
0.0
  0
LINE
  5
DEF
330
CB7
100
AcDbEntity
  8
寸法
 62
     0
370
    15
100
AcDbLine
 10
684.4918305325996
 20
635.021773967338
 30
0.0
 11
561.8357662996495
 21
635.021773967338
 31
0.0
  0
LINE
  5
DF0
330
CB7
100
AcDbEntity
  8
寸法
 62
     0
370
    15
100
AcDbLine
 10
561.8357662996496
 20
835.021773967338
 30
0.0
 11
561.8357662996495
 21
635.021773967338
 31
0.0
  0
INSERT
  5
DF1
330
CB7
100
AcDbEntity
  8
寸法
 62
     0
370
    15
100
AcDbBlockReference
  2
_DotSmall
 10
561.8357662996496
 20
835.021773967338
 30
0.0
 41
15.0
 42
15.0
 43
15.0
 50
90.0
  0
INSERT
  5
DF2
330
CB7
100
AcDbEntity
  8
寸法
 62
     0
370
    15
100
AcDbBlockReference
  2
_DotSmall
 10
561.8357662996495
 20
635.021773967338
 30
0.0
 41
15.0
 42
15.0
 43
15.0
 50
270.0
  0
MTEXT
  5
DF3
330
CB7
100
AcDbEntity
  8
寸法
 62
     0
100
AcDbMText
 10
543.0857662996494
 20
735.0217739673381
 30
0.0
 40
25.0
 41
0.0
 71
     5
 72
     1
  1
200
 11
0.0000000000000001
 21
1.0
 31
0.0
 73
     1
 44
1.0
1001
ACAD
1000
MTEXTBEGIN
1070
    73
1070
     1
1070
    44
1040
1.0
1070
    74
1070
     0
1000
MTEXTEND
  0
POINT
  5
DF4
330
CB7
100
AcDbEntity
  8
Defpoints
 62
     0
100
AcDbPoint
 10
749.4918305325995
 20
835.021773967338
 30
0.0
  0
POINT
  5
DF5
330
CB7
100
AcDbEntity
  8
Defpoints
 62
     0
100
AcDbPoint
 10
749.4918305325995
 20
635.021773967338
 30
0.0
  0
POINT
  5
DF6
330
CB7
100
AcDbEntity
  8
Defpoints
 62
     0
100
AcDbPoint
 10
561.8357662996495
 20
635.021773967338
 30
0.0
  0
ENDBLK
  5
CC2
330
CB7
100
AcDbEntity
  8
0
100
AcDbBlockEnd
  0
ENDSEC
  0
SECTION
  2
ENTITIES
  0
LINE
  5
9C
330
1F
100
AcDbEntity
  8
補助
100
AcDbLine
 10
114.0
 20
4.0
 30
0.0
 11
2784.0
 21
4.0
 31
0.0
  0
LINE
  5
A0
330
1F
100
AcDbEntity
  8
補助
100
AcDbLine
 10
2784.0
 20
2024.0
 30
0.0
 11
114.0
 21
2024.0
 31
0.0
  0
LINE
  5
A5
330
1F
100
AcDbEntity
  8
補助
100
AcDbLine
 10
2784.0
 20
4.0
 30
0.0
 11
2784.0
 21
2024.0
 31
0.0
  0
LINE
  5
2E6
330
1F
100
AcDbEntity
  8
実形
100
AcDbLine
 10
734.491830532599
 20
835.021773967338
 30
0.0
 11
1694.491830532599
 21
835.021773967338
 31
0.0
  0
CIRCLE
  5
2EB
330
1F
100
AcDbEntity
  8
実形
100
AcDbCircle
 10
899.4918305325992
 20
1495.021773967338
 30
0.0
 40
79.0
  0
CIRCLE
  5
2EE
330
1F
100
AcDbEntity
  8
実形
100
AcDbCircle
 10
899.4918305325992
 20
1495.021773967338
 30
0.0
 40
90.5
  0
LINE
  5
2F7
330
1F
100
AcDbEntity
  8
実形
100
AcDbLine
 10
749.4918305325991
 20
835.021773967338
 30
0.0
 11
749.4918305325991
 21
673.3973872264623
 31
0.0
  0
LINE
  5
2F9
330
1F
100
AcDbEntity
  8
実形
100
AcDbLine
 10
808.9918305325991
 20
635.021773967338
 30
0.0
 11
979.4918305325991
 21
635.021773967338
 31
0.0
  0
LINE
  5
2FA
330
1F
100
AcDbEntity
  8
実形
100
AcDbLine
 10
979.4918305325991
 20
635.021773967338
 30
0.0
 11
989.9918305325991
 21
635.021773967338
 31
0.0
  0
LINE
  5
2FB
330
1F
100
AcDbEntity
  8
実形
100
AcDbLine
 10
989.9918305325991
 20
635.021773967338
 30
0.0
 11
989.9918305325991
 21
635.021773967338
 31
0.0
  0
LINE
  5
2FD
330
1F
100
AcDbEntity
  8
実形
100
AcDbLine
 10
1679.491830532599
 20
679.3762254137852
 30
0.0
 11
1679.491830532599
 21
835.021773967338
 31
0.0
  0
LINE
  5
2FE
330
1F
100
AcDbEntity
  8
実形
100
AcDbLine
 10
2003.063290372789
 20
1720.021773967338
 30
0.0
 11
2003.063290372789
 21
1270.021773967338
 31
0.0
  0
LINE
  5
301
330
1F
100
AcDbEntity
  8
実形
100
AcDbLine
 10
2203.063290372789
 20
1404.521773967338
 30
0.0
 11
2203.063290372789
 21
1585.521773967338
 31
0.0
  0
LINE
  5
306
330
1F
100
AcDbEntity
  8
実形
100
AcDbLine
 10
808.9918305325991
 20
635.021773967338
 30
0.0
 11
808.9918305325991
 21
625.021773967338
 31
0.0
  0
LINE
  5
307
330
1F
100
AcDbEntity
  8
実形
100
AcDbLine
 10
808.9918305325991
 20
625.021773967338
 30
0.0
 11
989.9918305325991
 21
625.021773967338
 31
0.0
  0
LINE
  5
308
330
1F
100
AcDbEntity
  8
実形
100
AcDbLine
 10
989.9918305325991
 20
625.021773967338
 30
0.0
 11
989.9918305325991
 21
635.021773967338
 31
0.0
  0
LINE
  5
309
330
1F
100
AcDbEntity
  8
実形
100
AcDbLine
 10
2203.063290372789
 20
1585.521773967338
 30
0.0
 11
2213.063290372789
 21
1585.521773967338
 31
0.0
  0
LINE
  5
30A
330
1F
100
AcDbEntity
  8
実形
100
AcDbLine
 10
2213.063290372789
 20
1585.521773967338
 30
0.0
 11
2213.063290372789
 21
1404.521773967338
 31
0.0
  0
LINE
  5
30B
330
1F
100
AcDbEntity
  8
実形
100
AcDbLine
 10
2213.063290372789
 20
1404.521773967338
 30
0.0
 11
2203.063290372789
 21
1404.521773967338
 31
0.0
  0
LINE
  5
33A
330
1F
100
AcDbEntity
  8
センター
370
    15
100
AcDbLine
 10
724.1882784526032
 20
1495.021773967338
 30
0.0
 11
1074.795382612595
 21
1495.021773967338
 31
0.0
  0
LINE
  5
33B
330
1F
100
AcDbEntity
  8
センター
370
    15
100
AcDbLine
 10
899.4918305325992
 20
1675.325326047334
 30
0.0
 11
899.4918305325992
 21
1319.718221887342
 31
0.0
  0
LINE
  5
33C
330
1F
100
AcDbEntity
  8
センター
 48
0.5
370
    15
100
AcDbLine
 10
899.4918305325992
 20
713.2383978427514
 30
0.0
 11
899.4918305325992
 21
556.8225775354513
 31
0.0
  0
LINE
  5
33D
330
1F
100
AcDbEntity
  8
センター
 48
0.7
370
    15
100
AcDbLine
 10
1951.636341293387
 20
1495.021773967338
 30
0.0
 11
2255.882739220439
 21
1495.021773967338
 31
0.0
  0
LINE
  5
356
330
1F
100
AcDbEntity
  8
実形
100
AcDbLine
 10
772.1582577728172
 20
644.3075486126613
 30
0.0
 11
808.9918305325991
 21
635.021773967338
 31
0.0
  0
LINE
  5
357
330
1F
100
AcDbEntity
  8
実形
100
AcDbLine
 10
989.9918305325991
 20
635.021773967338
 30
0.0
 11
1650.144322992073
 21
649.3833220266449
 31
0.0
  0
ARC
  5
358
330
1F
100
AcDbEntity
  8
実形
100
AcDbCircle
 10
779.4918305325991
 20
673.3973872264623
 30
0.0
 40
30.0
100
AcDbArc
 50
180.0
 51
255.8505239136548
  0
ARC
  5
359
330
1F
100
AcDbEntity
  8
実形
100
AcDbCircle
 10
1649.491830532599
 20
679.3762254137852
 30
0.0
 40
30.0
100
AcDbArc
 50
271.2462670743365
 51
0.0
  0
DIMENSION
  5
35B
330
1F
100
AcDbEntity
  8
寸法
100
AcDbDimension
  2
*D4
 10
749.4918305325991
 20
1798.824892130746
 30
0.0
 11
824.4918305325992
 21
1817.574892130746
 31
0.0
 70
    32
 71
     5
 42
150.0
  3
ISO-25
100
AcDbAlignedDimension
 13
899.4918305325992
 23
1585.521773967338
 33
0.0
 14
749.4918305325991
 24
1495.021773967338
 34
0.0
100
AcDbRotatedDimension
1001
ACAD
1000
DSTYLE
1002
{
1070
   371
1070
    18
1002
}
  0
DIMENSION
  5
368
330
1F
100
AcDbEntity
  8
寸法
100
AcDbDimension
  2
*D5
 10
1214.491830532599
 20
1705.021773967338
 30
0.0
 11
1195.741830532599
 21
1600.021773967338
 31
0.0
 70
    32
  1
205
 71
     5
 42
210.0
  3
ISO-25
100
AcDbAlignedDimension
 13
989.9918305325993
 23
1495.021773967338
 33
0.0
 14
1144.346035426138
 24
1705.021773967338
 34
0.0
 50
90.0
100
AcDbRotatedDimension
1001
ACAD
1000
DSTYLE
1002
{
1070
   371
1070
    18
1002
}
  0
TEXT
  5
395
330
1F
100
AcDbEntity
  8
寸法
370
    18
100
AcDbText
 10
1225.322121839751
 20
1337.897413849365
 30
0.0
 40
25.0
  1
5000R
100
AcDbText
  0
TEXT
  5
397
330
1F
100
AcDbEntity
  8
寸法
370
    18
100
AcDbText
 10
1480.62163925181
 20
1524.741076090606
 30
0.0
 40
25.0
  1
1500R
100
AcDbText
  0
TEXT
  5
398
330
1F
100
AcDbEntity
  8
寸法
370
    18
100
AcDbText
 10
1522.580558947403
 20
1363.356582648695
 30
0.0
 40
25.0
  1
80R
100
AcDbText
  0
TEXT
  5
3AF
330
1F
100
AcDbEntity
  8
寸法
100
AcDbText
 10
1541.6900364973
 20
694.2965529283979
 30
0.0
 40
25.0
  1
30R
100
AcDbText
  0
TEXT
  5
3B1
330
1F
100
AcDbEntity
  8
寸法
370
    18
100
AcDbText
 10
2065.599875033654
 20
1341.077436210277
 30
0.0
 40
25.0
  1
30R
100
AcDbText
  0
DIMENSION
  5
3CE
330
1F
100
AcDbEntity
  8
寸法
100
AcDbDimension
  2
*D6
 10
591.3165158087259
 20
1705.021773967338
 30
0.0
 11
591.3165158087256
 21
1712.521773967338
 31
0.0
 70
    32
  1
 
 71
     5
 42
15.0
  3
ISO-25
100
AcDbAlignedDimension
 13
734.491830532599
 23
1720.021773967338
 33
0.0
 14
734.491830532599
 24
1705.021773967338
 34
0.0
 50
90.0
100
AcDbRotatedDimension
1001
ACAD
1000
DSTYLE
1002
{
1070
   371
1070
    18
1002
}
  0
DIMENSION
  5
3DC
330
1F
100
AcDbEntity
  8
寸法
100
AcDbDimension
  2
*D7
 10
591.3165158087259
 20
1285.021773967338
 30
0.0
 11
572.5665158087256
 21
1495.021773967338
 31
0.0
 70
    32
  1
410
 71
     5
 42
420.0
  3
ISO-25
100
AcDbAlignedDimension
 13
734.491830532599
 23
1705.021773967338
 33
0.0
 14
734.491830532599
 24
1285.021773967338
 34
0.0
 50
90.0
100
AcDbRotatedDimension
1001
ACAD
1000
DSTYLE
1002
{
1070
   371
1070
    18
1070
   279
1070
     1
1002
}
  0
DIMENSION
  5
3E9
330
1F
100
AcDbEntity
  8
寸法
370
    18
100
AcDbDimension
  2
*D8
 10
591.3165158087259
 20
1270.021773967338
 30
0.0
 11
595.7504101041404
 21
1227.337533259112
 31
0.0
 70
   160
 71
     5
 42
15.0
  3
ISO-25
100
AcDbAlignedDimension
 13
734.491830532599
 23
1285.021773967338
 33
0.0
 14
734.491830532599
 24
1270.021773967338
 34
0.0
 50
90.0
100
AcDbRotatedDimension
1001
ACAD
1000
DSTYLE
1002
{
1070
   371
1070
    18
1070
   279
1070
     1
1002
}
  0
DIMENSION
  5
3F6
330
1F
100
AcDbEntity
  8
寸法
100
AcDbDimension
  2
*D9
 10
522.4766174840415
 20
1270.021773967338
 30
0.0
 11
503.7266174840413
 21
1495.021773967338
 31
0.0
 70
    32
  1
440
 71
     5
 42
450.0
  3
ISO-25
100
AcDbAlignedDimension
 13
734.491830532599
 23
1720.021773967338
 33
0.0
 14
734.491830532599
 24
1270.021773967338
 34
0.0
 50
90.0
100
AcDbRotatedDimension
1001
ACAD
1000
DSTYLE
1002
{
1070
   371
1070
    18
1002
}
  0
TEXT
  5
43C
330
1F
100
AcDbEntity
  8
寸法
370
    18
100
AcDbText
 10
595.7504101041404
 20
1745.272946906664
 30
0.0
 40
25.0
  1
15
 50
90.0
100
AcDbText
  0
DIMENSION
  5
43D
330
1F
100
AcDbEntity
  8
寸法
100
AcDbDimension
  2
*D10
 10
749.4918305325991
 20
1122.089656197283
 30
0.0
 11
808.9918305325991
 21
1122.089656197283
 31
0.0
 70
   160
  1
 
 71
     5
 42
15.0
  3
ISO-25
100
AcDbAlignedDimension
 13
734.491830532599
 23
1270.021773967338
 33
0.0
 14
749.4918305325991
 24
1270.021773967338
 34
0.0
100
AcDbRotatedDimension
1001
ACAD
1000
DSTYLE
1002
{
1070
   371
1070
    18
1002
}
  0
DIMENSION
  5
44B
330
1F
100
AcDbEntity
  8
寸法
100
AcDbDimension
  2
*D11
 10
1679.491830532599
 20
1122.089656197283
 30
0.0
 11
1214.491830532599
 21
1140.839656197283
 31
0.0
 70
    32
 71
     5
 42
930.0
  3
ISO-25
100
AcDbAlignedDimension
 13
749.4918305325991
 23
1270.021773967338
 33
0.0
 14
1679.491830532599
 24
1270.021773967338
 34
0.0
100
AcDbRotatedDimension
1001
ACAD
1000
DSTYLE
1002
{
1070
   371
1070
    18
1070
   279
1070
     1
1002
}
  0
DIMENSION
  5
458
330
1F
100
AcDbEntity
  8
寸法
100
AcDbDimension
  2
*D12
 10
1694.491830532599
 20
1122.089656197283
 30
0.0
 11
1686.991830532599
 21
1122.089656197283
 31
0.0
 70
    32
  1
 
 71
     5
 42
15.0
  3
ISO-25
100
AcDbAlignedDimension
 13
1679.491830532599
 23
1270.021773967338
 33
0.0
 14
1694.491830532599
 24
1270.021773967338
 34
0.0
100
AcDbRotatedDimension
1001
ACAD
1000
DSTYLE
1002
{
1070
   371
1070
    18
1070
   279
1070
     1
1002
}
  0
TEXT
  5
494
330
1F
100
AcDbEntity
  8
寸法
100
AcDbText
 10
675.8936140863834
 20
1124.377653831679
 30
0.0
 40
25.0
  1
15
100
AcDbText
  0
TEXT
  5
495
330
1F
100
AcDbEntity
  8
寸法
370
    18
100
AcDbText
 10
1717.755290579193
 20
1124.377653831679
 30
0.0
 40
25.0
  1
15
100
AcDbText
  0
DIMENSION
  5
4A3
330
1F
100
AcDbEntity
  8
寸法
100
AcDbDimension
  2
*D13
 10
1694.491830532599
 20
1044.297746041414
 30
0.0
 11
1214.491830532599
 21
1063.047746041414
 31
0.0
 70
    32
 71
     5
 42
960.0
  3
ISO-25
100
AcDbAlignedDimension
 13
734.491830532599
 23
1270.021773967338
 33
0.0
 14
1694.491830532599
 24
1270.021773967338
 34
0.0
100
AcDbRotatedDimension
1001
ACAD
1000
DSTYLE
1002
{
1070
   371
1070
    18
1002
}
  0
DIMENSION
  5
4F8
330
1F
100
AcDbEntity
  8
寸法
100
AcDbDimension
  2
*D14
 10
979.4918305325991
 20
508.5943666662651
 30
0.0
 11
899.4918305325992
 21
527.3443666662651
 31
0.0
 70
    32
  1
158
 71
     5
 42
160.0
  3
ISO-25
100
AcDbAlignedDimension
 13
819.4918305325991
 23
625.021773967338
 33
0.0
 14
979.4918305325991
 24
625.021773967338
 34
0.0
100
AcDbRotatedDimension
1001
ACAD
1000
DSTYLE
1002
{
1070
   371
1070
    18
1002
}
  0
DIMENSION
  5
505
330
1F
100
AcDbEntity
  8
寸法
100
AcDbDimension
  2
*D15
 10
989.9918305325991
 20
448.6349680973362
 30
0.0
 11
899.4918305325992
 21
467.3849680973362
 31
0.0
 70
    32
 71
     5
 42
181.0
  3
ISO-25
100
AcDbAlignedDimension
 13
808.9918305325991
 23
625.0217739673381
 33
0.0
 14
989.9918305325991
 24
625.021773967338
 34
0.0
100
AcDbRotatedDimension
1001
ACAD
1000
DSTYLE
1002
{
1070
   371
1070
    18
1002
}
  0
DIMENSION
  5
532
330
1F
100
AcDbEntity
  8
寸法
100
AcDbDimension
  2
*D16
 10
2188.063290372789
 20
1145.141125245662
 30
0.0
 11
2195.563290372789
 21
1145.141125245662
 31
0.0
 70
    32
  1
 
 71
     5
 42
15.0
  3
ISO-25
100
AcDbAlignedDimension
 13
2203.063290372789
 23
1266.047859283097
 33
0.0
 14
2188.063290372789
 24
1266.047859283097
 34
0.0
100
AcDbRotatedDimension
1001
ACAD
1000
DSTYLE
1002
{
1070
    41
1040
15.0
1070
   371
1070
    18
1002
}
  0
DIMENSION
  5
548
330
1F
100
AcDbEntity
  8
寸法
100
AcDbDimension
  2
*D17
 10
2003.063290372789
 20
1081.769438346619
 30
0.0
 11
2103.063290372789
 21
1100.519438346619
 31
0.0
 70
    32
 71
     5
 42
200.0
  3
ISO-25
100
AcDbAlignedDimension
 13
2203.063290372789
 23
1242.753898062659
 33
0.0
 14
2003.063290372789
 24
1264.938627299283
 34
0.0
100
AcDbRotatedDimension
1001
ACAD
1000
DSTYLE
1002
{
1070
    41
1040
15.0
1070
   371
1070
    18
1002
}
  0
TEXT
  5
555
330
1F
100
AcDbEntity
  8
寸法
370
    18
100
AcDbText
 10
2144.243392486472
 20
1157.376298028479
 30
0.0
 40
25.0
  1
15
100
AcDbText
  0
DIMENSION
  5
569
330
1F
100
AcDbEntity
  8
寸法
100
AcDbDimension
  2
*D18
 10
2323.369434464709
 20
1415.021773967338
 30
0.0
 11
2304.619434464709
 21
1495.021773967338
 31
0.0
 70
    32
  1
158
 71
     5
 42
160.0
  3
ISO-25
100
AcDbAlignedDimension
 13
2213.063290372789
 23
1575.021773967338
 33
0.0
 14
2213.063290372789
 24
1415.021773967338
 34
0.0
 50
90.0
100
AcDbRotatedDimension
1001
ACAD
1000
DSTYLE
1002
{
1070
   371
1070
    18
1002
}
  0
DIMENSION
  5
57F
330
1F
100
AcDbEntity
  8
寸法
100
AcDbDimension
  2
*D19
 10
2388.291022429551
 20
1404.521773967338
 30
0.0
 11
2369.541022429551
 21
1495.021773967338
 31
0.0
 70
    32
 71
     5
 42
181.0
  3
ISO-25
100
AcDbAlignedDimension
 13
2213.063290372789
 23
1585.521773967338
 33
0.0
 14
2213.063290372789
 24
1404.521773967338
 34
0.0
 50
90.0
100
AcDbRotatedDimension
1001
ACAD
1000
DSTYLE
1002
{
1070
   371
1070
    18
1002
}
  0
LEADER
  5
7CF
330
1F
100
AcDbEntity
  8
0
100
AcDbLeader
  3
ISO-25
 40
25.0
 41
16.66666666666666
 76
     2
 10
1172.854086321126
 20
1299.011248932062
 30
0.0
 10
1212.076495515771
 20
1333.848075150782
 30
0.0
213
0.0
223
-12.5
233
0.0
1001
ACAD
1000
DSTYLE
1002
{
1070
    41
1040
25.0
1070
   147
1040
6.25
1070
    77
1070
     0
1070
    73
1070
     1
1070
    74
1070
     1
1070
   279
1070
     1
1070
   342
1005
DA
1002
}
  0
LEADER
  5
7D0
330
1F
100
AcDbEntity
  8
0
100
AcDbLeader
  3
ISO-25
 40
25.0
 41
16.66666666666666
 76
     2
 10
1671.850277990355
 20
1534.159823554572
 30
0.0
 10
1597.763504151268
 20
1536.337125781704
 30
0.0
213
0.0
223
-12.5
233
0.0
1001
ACAD
1000
DSTYLE
1002
{
1070
    41
1040
25.0
1070
   147
1040
6.25
1070
    77
1070
     0
1070
    73
1070
     1
1070
    74
1070
     1
1070
   279
1070
     1
1070
   342
1005
DA
1002
}
  0
LEADER
  5
7D1
330
1F
100
AcDbEntity
  8
0
100
AcDbLeader
  3
ISO-25
 40
25.0
 41
16.66666666666666
 76
     2
 10
1645.702002446319
 20
1329.493470696517
 30
0.0
 10
1597.763504151268
 20
1359.975692460972
 30
0.0
213
0.0
223
-12.5
233
0.0
1001
ACAD
1000
DSTYLE
1002
{
1070
    41
1040
25.0
1070
   147
1040
6.25
1070
    77
1070
     0
1070
    73
1070
     1
1070
    74
1070
     1
1070
   279
1070
     1
1070
   342
1005
DA
1002
}
  0
LEADER
  5
7D2
330
1F
100
AcDbEntity
  8
0
100
AcDbLeader
  3
ISO-25
 40
25.0
 41
16.66666666666666
 76
     2
 10
1663.134180647131
 20
664.7710841833713
 30
0.0
 10
1615.19568235208
 20
695.2533059478264
 30
0.0
213
0.0
223
-12.5
233
0.0
1001
ACAD
1000
DSTYLE
1002
{
1070
    41
1040
25.0
1070
   147
1040
6.25
1070
    77
1070
     0
1070
    73
1070
     1
1070
    74
1070
     1
1070
   279
1070
     1
1070
   342
1005
DA
1002
}
  0
LEADER
  5
7D3
330
1F
100
AcDbEntity
  8
0
100
AcDbLeader
  3
ISO-25
 40
25.0
 41
16.66666666666666
 76
     2
 10
2180.412438417204
 20
1300.292492025085
 30
0.0
 10
2143.369059740478
 20
1337.306615763237
 30
0.0
213
0.0
223
-12.5
233
0.0
1001
ACAD
1000
DSTYLE
1002
{
1070
    41
1040
25.0
1070
   147
1040
6.25
1070
    77
1070
     0
1070
    73
1070
     1
1070
    74
1070
     1
1070
   279
1070
     1
1070
   342
1005
DA
1002
}
  0
TEXT
  5
8C9
330
1F
100
AcDbEntity
  8
0
100
AcDbText
 10
249.2632881086038
 20
83.52862940911927
 30
0.0
 40
30.0
  1
※実寸には製造上の誤差が多少生ずる場合があります。シンクの穴あけ加工は現物合わせにてお願いします。
100
AcDbText
  0
TEXT
  5
B5D
330
1F
100
AcDbEntity
  8
補助
100
AcDbText
 10
2086.666666666667
 20
84.0
 30
0.0
 40
35.0
  1
尺度
 72
     4
 11
2124.0
 21
101.5
 31
0.0
100
AcDbText
  0
TEXT
  5
B5E
330
1F
100
AcDbEntity
  8
補助
100
AcDbText
 10
2086.666666666667
 20
149.0
 30
0.0
 40
35.0
  1
品番
 72
     4
 11
2124.0
 21
166.5
 31
0.0
100
AcDbText
  0
LINE
  5
B5F
330
1F
100
AcDbEntity
  8
補助
100
AcDbLine
 10
2064.0
 20
69.0
 30
0.0
 11
2784.0
 21
69.0
 31
0.0
  0
LINE
  5
B60
330
1F
100
AcDbEntity
  8
補助
100
AcDbLine
 10
2064.0
 20
199.0
 30
0.0
 11
2784.0
 21
199.0
 31
0.0
  0
LINE
  5
B61
330
1F
100
AcDbEntity
  8
補助
100
AcDbLine
 10
2064.0
 20
134.0
 30
0.0
 11
2784.0
 21
134.0
 31
0.0
  0
LINE
  5
B62
330
1F
100
AcDbEntity
  8
補助
100
AcDbLine
 10
2064.0
 20
4.0
 30
0.0
 11
2064.0
 21
199.0
 31
0.0
  0
TEXT
  5
B63
330
1F
100
AcDbEntity
  8
0
100
AcDbText
 10
2339.333333333334
 20
149.0
 30
0.0
 40
35.0
  1
CI 930-410
 72
     4
 11
2484.0
 21
166.5
 31
0.0
100
AcDbText
  0
TEXT
  5
B64
330
1F
100
AcDbEntity
  8
補助
100
AcDbText
 10
2300.255774665348
 20
16.49999999999999
 30
0.0
 40
40.0
  1
中外交易株式会社
 72
     4
 11
2488.255774665347
 21
36.5
 31
0.0
100
AcDbText
  0
LINE
  5
B65
330
1F
100
AcDbEntity
  8
補助
100
AcDbLine
 10
2184.0
 20
69.0
 30
0.0
 11
2784.0
 21
69.0
 31
0.0
  0
HATCH
  5
B66
330
1F
100
AcDbEntity
  8
補助
100
AcDbHatch
 10
0.0
 20
0.0
 30
0.0
210
0.0
220
0.0
230
1.0
  2
SOLID
 70
     1
 71
     1
 91
        3
 92
        1
 93
        4
 72
     2
 10
2257.166198313996
 20
36.5
 40
20.0
 50
11.64772366707381
 51
342.6561058784905
 73
     1
 72
     1
 10
2276.256852341323
 20
30.53787547858514
 11
2252.166198313995
 21
30.53787547858519
 72
     1
 10
2252.166198313995
 20
30.53787547858519
 11
2252.166198313995
 21
40.53787547858519
 72
     1
 10
2252.166198313995
 20
40.53787547858519
 11
2276.75434681301
 21
40.53787547858519
 97
        4
330
B73
330
B71
330
B70
330
B6F
 92
        1
 93
        4
 72
     2
 10
2188.255774665348
 20
36.5
 40
20.0
 50
11.64772366707381
 51
342.6561058784905
 73
     1
 72
     1
 10
2207.346428692676
 20
30.53787547858514
 11
2183.255774665347
 21
30.53787547858519
 72
     1
 10
2183.255774665347
 20
30.53787547858519
 11
2183.255774665347
 21
40.53787547858519
 72
     1
 10
2183.255774665347
 20
40.53787547858519
 11
2207.843923164362
 21
40.53787547858519
 97
        4
330
B72
330
B69
330
B68
330
B67
 92
        1
 93
        5
 72
     1
 10
2245.64189404294
 20
56.5
 11
2210.641894042939
 21
56.5
 72
     1
 10
2210.641894042939
 20
56.5
 11
2210.641894042939
 21
16.5
 72
     1
 10
2210.641894042939
 20
16.5
 11
2245.64189404294
 21
16.5
 72
     1
 10
2245.64189404294
 20
16.5
 11
2210.641894042939
 21
36.5
 72
     1
 10
2210.641894042939
 20
36.5
 11
2245.64189404294
 21
56.5
 97
        5
330
B6E
330
B6A
330
B6B
330
B6C
330
B6D
 75
     0
 76
     1
 98
        1
 10
-60.0
 20
0.0
  0
LINE
  5
B67
102
{ACAD_REACTORS
330
B66
102
}
330
1F
100
AcDbEntity
  8
補助
370
     5
100
AcDbLine
 10
2207.843923164362
 20
40.53787547858519
 30
0.0
 11
2183.255774665347
 21
40.53787547858519
 31
0.0
  0
LINE
  5
B68
102
{ACAD_REACTORS
330
B66
102
}
330
1F
100
AcDbEntity
  8
補助
370
     5
100
AcDbLine
 10
2183.255774665347
 20
40.53787547858519
 30
0.0
 11
2183.255774665347
 21
30.53787547858519
 31
0.0
  0
LINE
  5
B69
102
{ACAD_REACTORS
330
B66
102
}
330
1F
100
AcDbEntity
  8
補助
370
     5
100
AcDbLine
 10
2183.255774665347
 20
30.53787547858519
 30
0.0
 11
2207.346428692676
 21
30.53787547858514
 31
0.0
  0
LINE
  5
B6A
102
{ACAD_REACTORS
330
B66
102
}
330
1F
100
AcDbEntity
  8
補助
370
     5
100
AcDbLine
 10
2210.641894042939
 20
56.5
 30
0.0
 11
2210.641894042939
 21
16.5
 31
0.0
  0
LINE
  5
B6B
102
{ACAD_REACTORS
330
B66
102
}
330
1F
100
AcDbEntity
  8
補助
370
     5
100
AcDbLine
 10
2210.641894042939
 20
16.5
 30
0.0
 11
2245.64189404294
 21
16.5
 31
0.0
  0
LINE
  5
B6C
102
{ACAD_REACTORS
330
B66
102
}
330
1F
100
AcDbEntity
  8
補助
370
     5
100
AcDbLine
 10
2245.64189404294
 20
16.5
 30
0.0
 11
2210.641894042939
 21
36.5
 31
0.0
  0
LINE
  5
B6D
102
{ACAD_REACTORS
330
B66
102
}
330
1F
100
AcDbEntity
  8
補助
370
     5
100
AcDbLine
 10
2210.641894042939
 20
36.5
 30
0.0
 11
2245.64189404294
 21
56.5
 31
0.0
  0
LINE
  5
B6E
102
{ACAD_REACTORS
330
B66
102
}
330
1F
100
AcDbEntity
  8
補助
370
     5
100
AcDbLine
 10
2245.64189404294
 20
56.5
 30
0.0
 11
2210.641894042939
 21
56.5
 31
0.0
  0
LINE
  5
B6F
102
{ACAD_REACTORS
330
B66
102
}
330
1F
100
AcDbEntity
  8
補助
370
     5
100
AcDbLine
 10
2276.75434681301
 20
40.53787547858519
 30
0.0
 11
2252.166198313995
 21
40.53787547858519
 31
0.0
  0
LINE
  5
B70
102
{ACAD_REACTORS
330
B66
102
}
330
1F
100
AcDbEntity
  8
補助
370
     5
100
AcDbLine
 10
2252.166198313995
 20
40.53787547858519
 30
0.0
 11
2252.166198313995
 21
30.53787547858519
 31
0.0
  0
LINE
  5
B71
102
{ACAD_REACTORS
330
B66
102
}
330
1F
100
AcDbEntity
  8
補助
370
     5
100
AcDbLine
 10
2252.166198313995
 20
30.53787547858519
 30
0.0
 11
2276.256852341323
 21
30.53787547858514
 31
0.0
  0
ARC
  5
B72
102
{ACAD_REACTORS
330
B66
102
}
330
1F
100
AcDbEntity
  8
補助
370
     5
100
AcDbCircle
 10
2188.255774665348
 20
36.5
 30
0.0
 40
20.0
100
AcDbArc
 50
11.64772366707381
 51
342.6561058784905
  0
ARC
  5
B73
102
{ACAD_REACTORS
330
B66
102
}
330
1F
100
AcDbEntity
  8
補助
370
     5
100
AcDbCircle
 10
2257.166198313996
 20
36.5
 30
0.0
 40
20.0
100
AcDbArc
 50
11.64772366707381
 51
342.6561058784905
  0
LINE
  5
B74
330
1F
100
AcDbEntity
  8
補助
100
AcDbLine
 10
2184.0
 20
69.0
 30
0.0
 11
2184.0
 21
199.0
 31
0.0
  0
TEXT
  5
B75
330
1F
100
AcDbEntity
  8
0
100
AcDbText
 10
2430.916666666667
 20
84.0
 30
0.0
 40
35.0
  1
1：10
 72
     4
 11
2484.0
 21
101.5
 31
0.0
100
AcDbText
  0
LINE
  5
B76
330
1F
100
AcDbEntity
  8
補助
100
AcDbLine
 10
2784.0
 20
69.0
 30
0.0
 11
2784.0
 21
134.0
 31
0.0
  0
LINE
  5
B77
330
1F
100
AcDbEntity
  8
補助
100
AcDbLine
 10
2784.0
 20
4.0
 30
0.0
 11
2784.0
 21
69.0
 31
0.0
  0
LINE
  5
B78
330
1F
100
AcDbEntity
  8
補助
100
AcDbLine
 10
2784.0
 20
134.0
 30
0.0
 11
2784.0
 21
199.0
 31
0.0
  0
ARC
  5
BF2
330
1F
100
AcDbEntity
  8
実形
100
AcDbCircle
 10
1214.491830532599
 20
6285.021773967338
 30
0.0
 40
5000.0
100
AcDbArc
 50
265.5666492183692
 51
274.4333507816308
  0
ARC
  5
BF3
330
1F
100
AcDbEntity
  8
実形
100
AcDbCircle
 10
1214.491830532599
 20
-3294.978226032662
 30
0.0
 40
5000.0
100
AcDbArc
 50
85.56664921836924
 51
94.43335078163071
  0
ARC
  5
BF5
330
1F
100
AcDbEntity
  8
実形
100
AcDbCircle
 10
2249.491830532599
 20
1495.021773967338
 30
0.0
 40
1500.0
100
AcDbArc
 50
175.3434670106064
 51
184.6565329893936
  0
ARC
  5
BF6
330
1F
100
AcDbEntity
  8
実形
100
AcDbCircle
 10
179.4918305325991
 20
1495.021773967338
 30
0.0
 40
1500.0
100
AcDbArc
 50
355.3434670106064
 51
4.656532989393592
  0
LINE
  5
BF7
330
1F
100
AcDbEntity
  8
実形
100
AcDbLine
 10
2003.063290372789
 20
1705.021773967338
 30
0.0
 11
2161.593564032995
 21
1705.021773967338
 31
0.0
  0
LINE
  5
BF8
330
1F
100
AcDbEntity
  8
実形
100
AcDbLine
 10
2191.359980300475
 20
1678.758144210117
 30
0.0
 11
2203.063290372789
 21
1585.521773967338
 31
0.0
  0
LINE
  5
BF9
330
1F
100
AcDbEntity
  8
実形
100
AcDbLine
 10
2203.063290372789
 20
1404.521773967338
 30
0.0
 11
2191.359980300474
 21
1311.285403724558
 31
0.0
  0
LINE
  5
BFA
330
1F
100
AcDbEntity
  8
実形
100
AcDbLine
 10
2161.593564032994
 20
1285.021773967338
 30
0.0
 11
2003.063290372789
 21
1285.021773967338
 31
0.0
  0
ARC
  5
BFB
330
1F
100
AcDbEntity
  8
実形
100
AcDbCircle
 10
1594.804782631649
 20
1610.300773011705
 30
0.0
 40
80.0
100
AcDbArc
 50
4.656532989393646
 51
85.56664921836922
  0
ARC
  5
BFC
330
1F
100
AcDbEntity
  8
実形
100
AcDbCircle
 10
1594.804782631649
 20
1379.742774922971
 30
0.0
 40
80.0
100
AcDbArc
 50
274.4333507816314
 51
355.3434670106057
  0
ARC
  5
BFD
330
1F
100
AcDbEntity
  8
実形
100
AcDbCircle
 10
834.1788784335488
 20
1379.742774922971
 30
0.0
 40
80.0
100
AcDbArc
 50
184.6565329893933
 51
265.5666492183672
  0
ARC
  5
BFE
330
1F
100
AcDbEntity
  8
実形
100
AcDbCircle
 10
834.1788784335488
 20
1610.300773011705
 30
0.0
 40
80.0
100
AcDbArc
 50
94.43335078163029
 51
175.3434670106063
  0
ARC
  5
BFF
330
1F
100
AcDbEntity
  8
実形
100
AcDbCircle
 10
2161.593564032995
 20
1675.021773967338
 30
0.0
 40
30.0
100
AcDbArc
 50
7.154519837289512
 51
90.0
  0
ARC
  5
C00
330
1F
100
AcDbEntity
  8
実形
100
AcDbCircle
 10
2161.593564032994
 20
1315.021773967338
 30
0.0
 40
30.0
100
AcDbArc
 50
270.0
 51
352.8454801627105
  0
ARC
  5
C01
330
1F
100
AcDbEntity
  8
実形
100
AcDbCircle
 10
1214.491830532599
 20
-3294.978226032662
 30
0.0
 40
5015.0
100
AcDbArc
 50
85.56664921836924
 51
94.43335078163071
  0
ARC
  5
C02
330
1F
100
AcDbEntity
  8
実形
100
AcDbCircle
 10
1594.804782631649
 20
1610.300773011705
 30
0.0
 40
95.0
100
AcDbArc
 50
4.656532989393646
 51
85.56664921836922
  0
ARC
  5
C03
330
1F
100
AcDbEntity
  8
実形
100
AcDbCircle
 10
179.4918305325991
 20
1495.021773967338
 30
0.0
 40
1515.0
100
AcDbArc
 50
355.3434670106064
 51
4.656532989393592
  0
ARC
  5
C04
330
1F
100
AcDbEntity
  8
実形
100
AcDbCircle
 10
1594.804782631649
 20
1379.742774922971
 30
0.0
 40
95.0
100
AcDbArc
 50
274.4333507816314
 51
355.3434670106057
  0
ARC
  5
C05
330
1F
100
AcDbEntity
  8
実形
100
AcDbCircle
 10
1214.491830532599
 20
6285.021773967338
 30
0.0
 40
5015.0
100
AcDbArc
 50
265.5666492183692
 51
274.4333507816308
  0
ARC
  5
C06
330
1F
100
AcDbEntity
  8
実形
100
AcDbCircle
 10
834.1788784335488
 20
1379.742774922971
 30
0.0
 40
95.0
100
AcDbArc
 50
184.6565329893933
 51
265.5666492183672
  0
ARC
  5
C07
330
1F
100
AcDbEntity
  8
実形
100
AcDbCircle
 10
2249.491830532599
 20
1495.021773967338
 30
0.0
 40
1515.0
100
AcDbArc
 50
175.3434670106064
 51
184.6565329893936
  0
ARC
  5
C08
330
1F
100
AcDbEntity
  8
実形
100
AcDbCircle
 10
834.1788784335488
 20
1610.300773011705
 30
0.0
 40
95.0
100
AcDbArc
 50
94.43335078163029
 51
175.3434670106063
  0
DIMENSION
  5
CA9
330
1F
100
AcDbEntity
  8
寸法
100
AcDbDimension
  2
*D20
 10
630.6000800448924
 20
635.021773967338
 30
0.0
 11
630.6000800448922
 21
642.5217739673382
 31
0.0
 70
    32
  1
 
 71
     5
 42
15.0
  3
ISO-25
100
AcDbAlignedDimension
 13
749.4918305325995
 23
650.021773967338
 33
0.0
 14
749.4918305325995
 24
635.021773967338
 34
0.0
 50
90.0
100
AcDbRotatedDimension
1001
ACAD
1000
DSTYLE
1002
{
1070
    41
1040
15.0
1070
   371
1070
    15
1002
}
  0
DIMENSION
  5
CAA
330
1F
100
AcDbEntity
  8
寸法
100
AcDbDimension
  2
*D21
 10
561.8357662996495
 20
635.021773967338
 30
0.0
 11
543.0857662996494
 21
735.0217739673381
 31
0.0
 70
    32
 71
     5
 42
200.0
  3
ISO-25
100
AcDbAlignedDimension
 13
749.4918305325995
 23
835.021773967338
 33
0.0
 14
749.4918305325995
 24
635.021773967338
 34
0.0
 50
90.0
100
AcDbRotatedDimension
1001
ACAD
1000
DSTYLE
1002
{
1070
    41
1040
15.0
1070
   371
1070
    15
1002
}
  0
TEXT
  5
CAB
330
1F
100
AcDbEntity
  8
寸法
370
    18
100
AcDbText
 10
604.6516773989424
 20
649.2924861919346
 30
0.0
 40
25.0
  1
15
 50
90.0
100
AcDbText
  0
LINE
  5
CDE
330
1F
100
AcDbEntity
  8
実形
100
AcDbLine
 10
630.6000800448924
 20
635.021773967338
 30
0.0
 11
684.4918305325996
 21
635.021773967338
 31
0.0
  0
LINE
  5
CDF
330
1F
100
AcDbEntity
  8
実形
100
AcDbLine
 10
630.6000800448924
 20
625.021773967338
 30
0.0
 11
684.4918305325996
 21
625.0217739673381
 31
0.0
  0
LINE
  5
CE2
330
1F
100
AcDbEntity
  8
実形
100
AcDbLine
 10
630.6000800448924
 20
625.021773967338
 30
0.0
 11
630.6000800448924
 21
635.021773967338
 31
0.0
  0
TEXT
  5
D0C
330
1F
100
AcDbEntity
  8
寸法
 62
     0
370
    18
100
AcDbText
 10
629.1701712925187
 20
623.5043350427122
 30
0.0
 40
3.0
  1
●
100
AcDbText
  0
TEXT
  5
D15
330
1F
100
AcDbEntity
  8
寸法
 62
     0
370
    18
100
AcDbText
 10
605.2654595362327
 20
610.3181351267994
 30
0.0
 40
25.0
  1
7
 50
90.0
100
AcDbText
  0
TEXT
  5
D66
330
1F
100
AcDbEntity
  8
寸法
370
    18
100
AcDbText
 10
2222.934028612162
 20
1156.126017426442
 30
0.0
 40
25.0
  1
7
100
AcDbText
  0
LINE
  5
D91
330
1F
100
AcDbEntity
  8
実形
100
AcDbLine
 10
2203.063290372789
 20
1145.141125245662
 30
0.0
 11
2203.063290372789
 21
1201.047859283097
 31
0.0
  0
LINE
  5
D94
330
1F
100
AcDbEntity
  8
実形
100
AcDbLine
 10
2203.063290372789
 20
1145.141125245662
 30
0.0
 11
2213.063290372789
 21
1145.141125245662
 31
0.0
  0
LINE
  5
DC8
330
1F
100
AcDbEntity
  8
実形
100
AcDbLine
 10
2213.06329037279
 20
1201.047859283097
 30
0.0
 11
2213.06329037279
 21
1145.141125245662
 31
0.0
  0
TEXT
  5
DD3
330
1F
100
AcDbEntity
  8
寸法
 62
     0
370
    18
100
AcDbText
 10
2211.712064749018
 20
1143.602657375186
 30
0.0
 40
3.0
  1
●
100
AcDbText
  0
LINE
  5
EE1
330
1F
100
AcDbEntity
  8
補助
100
AcDbLine
 10
2784.0
 20
1959.0
 30
0.0
 11
2019.387286519283
 21
1959.000000000001
 31
0.0
  0
LINE
  5
EE2
330
1F
100
AcDbEntity
  8
補助
100
AcDbLine
 10
2784.0
 20
1894.0
 30
0.0
 11
2019.387286519283
 21
1894.0
 31
0.0
  0
LINE
  5
EE3
330
1F
100
AcDbEntity
  8
補助
100
AcDbLine
 10
2202.547653420927
 20
1894.0
 30
0.0
 11
2202.547653420927
 21
2024.0
 31
0.0
  0
LINE
  5
EE4
330
1F
100
AcDbEntity
  8
補助
100
AcDbLine
 10
2019.387286519283
 20
1894.0
 30
0.0
 11
2019.387286519283
 21
2024.0
 31
0.0
  0
TEXT
  5
EE5
330
1F
100
AcDbEntity
  8
補助
100
AcDbText
 10
2050.295698850121
 20
1976.328571428572
 30
0.0
 40
30.0
  1
部品名
  7
明朝
 72
     4
 11
2116.124270278692
 21
1991.5
 31
0.0
100
AcDbText
  0
TEXT
  5
EE6
330
1F
100
AcDbEntity
  8
補助
100
AcDbText
 10
2627.614285714286
 20
1976.071428571429
 30
0.0
 40
30.0
  1
厚さ
  7
明朝
 72
     4
 11
2671.5
 21
1991.5
 31
0.0
100
AcDbText
  0
LINE
  5
EE7
330
1F
100
AcDbEntity
  8
補助
100
AcDbLine
 10
2559.0
 20
1894.0
 30
0.0
 11
2559.0
 21
2024.0
 31
0.0
  0
TEXT
  5
EE8
330
1F
100
AcDbEntity
  8
補助
100
AcDbText
 10
2338.490869919937
 20
1975.947979478155
 30
0.0
 40
30.0
  1
材質
  7
明朝
 72
     4
 11
2382.376584205651
 21
1991.119408049583
 31
0.0
100
AcDbText
  0
TEXT
  5
EE9
330
1F
100
AcDbEntity
  8
実形
100
AcDbText
 10
2048.227810657788
 20
1910.557142857143
 30
0.0
 40
30.0
  1
ボウル
  7
明朝
 72
     4
 11
2114.056382086359
 21
1926.5
 31
0.0
100
AcDbText
  0
TEXT
  5
EEA
330
1F
100
AcDbEntity
  8
実形
100
AcDbText
 10
2594.700000000001
 20
1911.842857142857
 30
0.0
 40
30.0
  1
0.6ｍｍ
  7
明朝
 72
     4
 11
2671.500000000001
 21
1926.5
 31
0.0
100
AcDbText
  0
TEXT
  5
EEB
330
1F
100
AcDbEntity
  8
実形
100
AcDbText
 10
2261.016869107866
 20
1910.728571428572
 30
0.0
 40
30.0
  1
SUS304（BA）
  7
明朝
 72
     4
 11
2392.674011965008
 21
1926.5
 31
0.0
100
AcDbText
  0
LINE
  5
EEC
330
1F
100
AcDbEntity
  8
補助
100
AcDbLine
 10
114.0
 20
2024.0
 30
0.0
 11
114.0
 21
4.0
 31
0.0
  0
VIEWPORT
  5
2E
102
{ACAD_XDICTIONARY
360
F28
102
}
330
1B
100
AcDbEntity
 67
     1
  8
0
100
AcDbViewport
 10
144.7270812988281
 20
101.2295806407928
 30
0.0
 40
411.6736216682419
 41
222.1517806396485
 68
     1
 69
     1
 12
144.7270812988281
 22
101.2295806407928
 13
0.0
 23
0.0
 14
10.0
 24
10.0
 15
10.0
 25
10.0
 16
0.0
 26
0.0
 36
1.0
 17
0.0
 27
0.0
 37
0.0
 42
50.0
 43
0.0
 44
0.0
 45
222.1517806396485
 50
0.0
 51
0.0
 72
   100
 90
    32800
  1

281
     0
 71
     1
 74
     0
110
0.0
120
0.0
130
0.0
111
1.0
121
0.0
131
0.0
112
0.0
122
1.0
132
0.0
 79
     0
146
0.0
  0
VIEWPORT
  5
30
102
{ACAD_XDICTIONARY
360
F2A
102
}
330
1B
100
AcDbEntity
 67
     1
  8
0
100
AcDbViewport
 10
139.2237563133239
 20
101.2295821905136
 30
0.0
 40
222.7580101013184
 41
161.9673315048218
 68
     2
 69
     2
 12
210.0
 22
148.5
 13
0.0
 23
0.0
 14
10.0
 24
10.0
 15
10.0
 25
10.0
 16
0.0
 26
0.0
 36
1.0
 17
0.0
 27
0.0
 37
0.0
 42
50.0
 43
0.0
 44
0.0
 45
309.0686705647124
 50
0.0
 51
0.0
 72
   100
 90
    32864
  1

281
     0
 71
     1
 74
     0
110
0.0
120
0.0
130
0.0
111
1.0
121
0.0
131
0.0
112
0.0
122
1.0
132
0.0
 79
     0
146
0.0
  0
ENDSEC
  0
SECTION
  2
OBJECTS
  0
DICTIONARY
  5
C
330
0
100
AcDbDictionary
281
     1
  3
ACAD_COLOR
350
C98
  3
ACAD_GROUP
350
D
  3
ACAD_LAYOUT
350
1A
  3
ACAD_MATERIAL
350
C97
  3
ACAD_MLINESTYLE
350
17
  3
ACAD_PLOTSETTINGS
350
19
  3
ACAD_PLOTSTYLENAME
350
E
  3
ACAD_TABLESTYLE
350
C99
  3
AcadDim
350
124
  3
ACDBHEADERROUNDTRIPXREC
350
F21
  3
AcDbVariableDictionary
350
D17
  0
DICTIONARY
  5
EA5
330
2
100
AcDbDictionary
280
     1
281
     1
  3
ACAD_LAYERFILTERS
360
EA7
  3
ACAD_LAYERSTATES
360
EA8
  3
ACLYDICTIONARY
360
EA6
  0
DICTIONARY
  5
CE0
330
1F
100
AcDbDictionary
280
     1
281
     1
  3
ACAD_SORTENTS
360
CE1
  0
DICTIONARY
  5
F28
330
2E
100
AcDbDictionary
280
     1
281
     1
  3
ACAD_XREC_ROUNDTRIP
360
F29
  0
DICTIONARY
  5
F2A
330
30
100
AcDbDictionary
280
     1
281
     1
  3
ACAD_XREC_ROUNDTRIP
360
F2B
  0
DICTIONARY
  5
C98
102
{ACAD_REACTORS
330
C
102
}
330
C
100
AcDbDictionary
281
     1
  0
DICTIONARY
  5
D
102
{ACAD_REACTORS
330
C
102
}
330
C
100
AcDbDictionary
281
     1
  0
DICTIONARY
  5
1A
102
{ACAD_REACTORS
330
C
102
}
330
C
100
AcDbDictionary
281
     1
  3
Model
350
22
  3
ﾚｲｱｳﾄ1
350
1E
  3
ﾚｲｱｳﾄ2
350
26
  0
DICTIONARY
  5
C97
102
{ACAD_REACTORS
330
C
102
}
330
C
100
AcDbDictionary
281
     1
  0
DICTIONARY
  5
17
102
{ACAD_REACTORS
330
C
102
}
330
C
100
AcDbDictionary
281
     1
  3
Standard
350
18
  0
DICTIONARY
  5
19
102
{ACAD_REACTORS
330
C
102
}
330
C
100
AcDbDictionary
281
     1
  0
ACDBDICTIONARYWDFLT
  5
E
102
{ACAD_REACTORS
330
C
102
}
330
C
100
AcDbDictionary
281
     1
  3
Normal
350
F
100
AcDbDictionaryWithDefault
340
F
  0
DICTIONARY
  5
C99
102
{ACAD_REACTORS
330
C
102
}
330
C
100
AcDbDictionary
281
     1
  3
Standard
350
C9A
  0
XRECORD
  5
124
102
{ACAD_REACTORS
330
C
102
}
330
C
100
AcDbXrecord
280
     1
 90
   990106
  3

 60
     0
 61
     0
 62
     1
 63
     3
 64
     0
 65
     0
 66
     0
 67
     3
 68
     1
 69
     0
 70
     0
 71
     0
 72
     0
 40
30.0
170
     0
  0
DICTIONARY
  5
F21
102
{ACAD_REACTORS
330
C
102
}
330
C
100
AcDbDictionary
281
     1
  0
DICTIONARY
  5
D17
102
{ACAD_REACTORS
330
C
102
}
330
C
100
AcDbDictionary
281
     1
  3
CTABLESTYLE
350
D18
  3
DIMASSOC
350
F1E
  3
PROJECTNAME
350
F1F
  0
DICTIONARY
  5
EA7
102
{ACAD_REACTORS
330
EA5
102
}
330
EA5
100
AcDbDictionary
281
     1
  0
DICTIONARY
  5
EA8
102
{ACAD_REACTORS
330
EA5
102
}
330
EA5
100
AcDbDictionary
281
     1
  0
DICTIONARY
  5
EA6
102
{ACAD_REACTORS
330
EA5
102
}
330
EA5
100
AcDbDictionary
281
     1
1001
ACAD
1000
<All
  0
SORTENTSTABLE
  5
CE1
102
{ACAD_REACTORS
330
CE0
102
}
330
CE0
100
AcDbSortentsTable
330
1F
331
CE2
  5
D0C
331
EE7
  5
EE8
331
7D0
  5
7D1
331
33D
  5
356
331
569
  5
57F
331
44B
  5
458
331
2E6
  5
2EB
331
2EE
  5
2F7
331
BF7
  5
BF8
331
BFD
  5
BFE
331
C05
  5
C06
331
CAB
  5
CDE
331
3DC
  5
3E9
331
B60
  5
B61
331
532
  5
548
331
2FE
  5
301
331
B68
  5
B69
331
306
  5
307
331
B70
  5
B71
331
395
  5
397
331
B78
  5
BF2
331
EE8
  5
EE9
331
7D1
  5
7D2
331
4A3
  5
4F8
331
8C9
  5
B5D
331
43C
  5
43D
331
356
  5
357
331
BFE
  5
BFF
331
C06
  5
C07
331
2F7
  5
2F9
331
B61
  5
B62
331
B69
  5
B6A
331
307
  5
308
331
B71
  5
B72
331
494
  5
495
331
DD3
  5
EE1
331
EE1
  5
EE2
331
EE9
  5
EEA
331
D0C
  5
D15
331
7D2
  5
7D3
331
43D
  5
44B
331
357
  5
358
331
3CE
  5
3DC
331
BFF
  5
C00
331
C07
  5
C08
331
D94
  5
DC8
331
B62
  5
B63
331
B6A
  5
B6B
331
308
  5
309
331
B72
  5
B73
331
495
  5
4A3
331
3F6
  5
43C
331
397
  5
398
331
EE2
  5
EE3
331
EEA
  5
EEB
331
7D3
  5
8C9
331
3AF
  5
3B1
331
358
  5
359
331
9C
  5
9C
331
BF2
  5
BF3
331
505
  5
532
331
BF8
  5
BF9
331
D15
  5
D66
331
C00
  5
C01
331
C08
  5
CA9
331
368
  5
395
331
2F9
  5
2FA
331
B63
  5
B64
331
301
  5
306
331
B6B
  5
B6C
331
309
  5
30A
331
B73
  5
B74
331
CDE
  5
CDF
331
EE3
  5
EE4
331
EEB
  5
EEC
331
398
  5
3AF
331
555
  5
569
331
359
  5
35B
331
BF3
  5
BF5
331
A5
  5
2E6
331
BF9
  5
BFA
331
C01
  5
C02
331
D66
  5
D91
331
2FA
  5
2FB
331
B64
  5
B65
331
B6C
  5
B6D
331
30A
  5
30B
331
B74
  5
B75
331
CDF
  5
CE2
331
EE4
  5
EE5
331
EEC
  5
A0
331
33A
  5
33B
331
3B1
  5
3CE
331
2EB
  5
2EE
331
B5D
  5
B5E
331
BFA
  5
BFB
331
C02
  5
C03
331
458
  5
494
331
2FB
  5
2FD
331
B65
  5
B66
331
3E9
  5
3F6
331
B6D
  5
B6E
331
30B
  5
33A
331
B75
  5
B76
331
EE5
  5
EE6
331
33B
  5
33C
331
4F8
  5
505
331
35B
  5
368
331
BF5
  5
BF6
331
B5E
  5
B5F
331
BFB
  5
BFC
331
C03
  5
C04
331
CA9
  5
CAA
331
57F
  5
7CF
331
B66
  5
B67
331
B6E
  5
B6F
331
548
  5
555
331
B76
  5
B77
331
7CF
  5
7D0
331
DC8
  5
DD3
331
EE6
  5
EE7
331
33C
  5
33D
331
A0
  5
A5
331
BF6
  5
BF7
331
B5F
  5
B60
331
BFC
  5
BFD
331
C04
  5
C05
331
CAA
  5
CAB
331
D91
  5
D94
331
2FD
  5
2FE
331
B67
  5
B68
331
B6F
  5
B70
331
B77
  5
B78
  0
XRECORD
  5
F29
102
{ACAD_REACTORS
330
F28
102
}
330
F28
100
AcDbXrecord
280
     1
102
SHADEPLOT
 70
     0
  0
XRECORD
  5
F2B
102
{ACAD_REACTORS
330
F2A
102
}
330
F2A
100
AcDbXrecord
280
     1
102
SHADEPLOT
 70
     0
  0
LAYOUT
  5
22
102
{ACAD_XDICTIONARY
360
F24
102
}
102
{ACAD_REACTORS
330
1A
102
}
330
1A
100
AcDbPlotSettings
  1

  2
EPSON PM-800C
  4
A4
  6

 40
3.757083177566528
 41
14.7637300491333
 42
3.757080078125
 43
3.757080078125
 44
209.9733276367187
 45
296.9683227539062
 46
0.0
 47
0.0
 48
0.0
 49
0.0
140
0.0
141
0.0
142
1.0
143
10.0
 70
 11952
 72
     1
 73
     1
 74
     2
  7

 75
    20
147
0.1
148
0.0
149
0.0
100
AcDbLayout
  1
Model
 70
     1
 71
     0
 10
0.0
 20
0.0
 11
12.0
 21
9.0
 12
0.0
 22
0.0
 32
0.0
 14
0.0
 24
0.0
 34
0.0
 15
0.0
 25
0.0
 35
0.0
146
0.0
 13
0.0
 23
0.0
 33
0.0
 16
1.0
 26
0.0
 36
0.0
 17
0.0
 27
1.0
 37
0.0
 76
     0
330
1F
  0
LAYOUT
  5
1E
102
{ACAD_XDICTIONARY
360
F22
102
}
102
{ACAD_REACTORS
330
1A
102
}
330
1A
100
AcDbPlotSettings
  1

  2
EPSON PM-800C
  4
A4
  6

 40
3.757083177566528
 41
14.7637300491333
 42
3.757080078125
 43
3.757080078125
 44
209.9733276367187
 45
296.9683227539062
 46
0.0
 47
0.0
 48
0.0
 49
0.0
140
0.0
141
0.0
142
1.0
143
1.0
 70
   688
 72
     1
 73
     1
 74
     5
  7

 75
    16
147
1.0
148
0.0
149
0.0
100
AcDbLayout
  1
ﾚｲｱｳﾄ1
 70
     1
 71
     1
 10
-3.757080078125
 20
-3.757083177566528
 11
293.2112426757813
 21
206.2162444591522
 12
0.0
 22
0.0
 32
0.0
 14
27.8447512626648
 24
20.24591643810271
 34
0.0
 15
250.6027613639831
 25
182.2132479429245
 35
0.0
146
0.0
 13
0.0
 23
0.0
 33
0.0
 16
1.0
 26
0.0
 36
0.0
 17
0.0
 27
1.0
 37
0.0
 76
     0
330
1B
331
2E
  0
LAYOUT
  5
26
102
{ACAD_XDICTIONARY
360
F26
102
}
102
{ACAD_REACTORS
330
1A
102
}
330
1A
100
AcDbPlotSettings
  1

  2
EPSON PM-800C
  4

  6

 40
0.0
 41
0.0
 42
0.0
 43
0.0
 44
0.0
 45
0.0
 46
0.0
 47
0.0
 48
0.0
 49
0.0
140
0.0
141
0.0
142
1.0
143
1.0
 70
   688
 72
     0
 73
     0
 74
     5
  7

 75
    16
147
1.0
148
0.0
149
0.0
100
AcDbLayout
  1
ﾚｲｱｳﾄ2
 70
     1
 71
     2
 10
0.0
 20
0.0
 11
12.0
 21
9.0
 12
0.0
 22
0.0
 32
0.0
 14
0.0
 24
0.0
 34
0.0
 15
0.0
 25
0.0
 35
0.0
146
0.0
 13
0.0
 23
0.0
 33
0.0
 16
1.0
 26
0.0
 36
0.0
 17
0.0
 27
1.0
 37
0.0
 76
     0
330
23
  0
MLINESTYLE
  5
18
102
{ACAD_REACTORS
330
17
102
}
330
17
100
AcDbMlineStyle
  2
STANDARD
 70
     0
  3

 62
   256
 51
90.0
 52
90.0
 71
     2
 49
0.5
 62
   256
  6
BYLAYER
 49
-0.5
 62
   256
  6
BYLAYER
  0
ACDBPLACEHOLDER
  5
F
102
{ACAD_REACTORS
330
E
102
}
330
E
  0
TABLESTYLE
  5
C9A
102
{ACAD_REACTORS
330
C99
102
}
330
C99
100
AcDbTableStyle
  3
Standard
 70
     0
 71
     0
 40
1.5
 41
1.5
280
     0
281
     0
  7
Standard
140
4.5
170
     2
 62
     0
 63
     7
283
     0
274
    -2
284
     1
 64
     0
275
    -2
285
     1
 65
     0
276
    -2
286
     1
 66
     0
277
    -2
287
     1
 67
     0
278
    -2
288
     1
 68
     0
279
    -2
289
     1
 69
     0
  7
Standard
140
6.0
170
     5
 62
     0
 63
     7
283
     0
274
    -2
284
     1
 64
     0
275
    -2
285
     1
 65
     0
276
    -2
286
     1
 66
     0
277
    -2
287
     1
 67
     0
278
    -2
288
     1
 68
     0
279
    -2
289
     1
 69
     0
  7
Standard
140
4.5
170
     5
 62
     0
 63
     7
283
     0
274
    -2
284
     1
 64
     0
275
    -2
285
     1
 65
     0
276
    -2
286
     1
 66
     0
277
    -2
287
     1
 67
     0
278
    -2
288
     1
 68
     0
279
    -2
289
     1
 69
     0
  0
DICTIONARYVAR
  5
D18
102
{ACAD_REACTORS
330
D17
102
}
330
D17
100
DictionaryVariables
280
     0
  1
STANDARD
  0
DICTIONARYVAR
  5
F1E
102
{ACAD_REACTORS
330
D17
102
}
330
D17
100
DictionaryVariables
280
     0
  1
1
  0
DICTIONARYVAR
  5
F1F
102
{ACAD_REACTORS
330
D17
102
}
330
D17
100
DictionaryVariables
280
     0
  1

  0
DICTIONARY
  5
F24
330
22
100
AcDbDictionary
280
     1
281
     1
  3
ACAD_XREC_ROUNDTRIP
360
F25
  0
DICTIONARY
  5
F22
330
1E
100
AcDbDictionary
280
     1
281
     1
  3
ACAD_XREC_ROUNDTRIP
360
F23
  0
DICTIONARY
  5
F26
330
26
100
AcDbDictionary
280
     1
281
     1
  3
ACAD_XREC_ROUNDTRIP
360
F27
  0
XRECORD
  5
F25
102
{ACAD_REACTORS
330
F24
102
}
330
F24
100
AcDbXrecord
280
     1
102
SHADEPLOT
 70
     0
102
SHADEPLOTRESLEVEL
 70
     2
102
SHADEPLOTCUSTOMDPI
 70
   300
  0
XRECORD
  5
F23
102
{ACAD_REACTORS
330
F22
102
}
330
F22
100
AcDbXrecord
280
     1
102
SHADEPLOT
 70
     0
102
SHADEPLOTRESLEVEL
 70
     2
102
SHADEPLOTCUSTOMDPI
 70
   300
  0
XRECORD
  5
F27
102
{ACAD_REACTORS
330
F26
102
}
330
F26
100
AcDbXrecord
280
     1
102
SHADEPLOT
 70
     0
102
SHADEPLOTRESLEVEL
 70
     2
102
SHADEPLOTCUSTOMDPI
 70
   300
  0
ENDSEC
  0
EOF
